Direct Download ABC Four Corners Catastrophic Failure WebRip AVC [MVGroup] torrent

download torrent
Size: 213 MB
Downloaded: 178
Hits: 352
Catastrophic Failure
Sociopolitical Documentary hosted by Ben Night, published by ABC broadcasted as part of ABC Four Corners series in 2016 - English narration
Information
------------------------------
"I ended up with nothing but the clothes I had on. I lost everything I had at home, documents, photos of my children." Survivor
"Of course it will affect our bottom line." Andrew Mackenzie, BHP CEO
The Melbourne headquarters of Australian mining giant BHP is a world away from the small Brazilian village of Bento Rodrigues, but what happened in this faraway place will cost BHP billions.
"The mud would come and drag me down, I would come up, it would take me down again...I screamed, calling my children, calling them, but nobody answered." Survivor
Three months ago a horror mudslide swept through the towns and villages in the Gualaxo River Valley in Brazil, destroying homes, businesses and taking the lives of 19 people.
A tailings dam, holding back more than 50 million cubic metres of mining waste collapsed, unleashing a wave of mud several metres high. The waste in the dam came from the huge open cut Samarco iron ore mine, half owned by Australia's BHP Billiton. Brazil's chief environment officer calls it the biggest environmental disaster in the country's mining history.
"This mud wave has killed anything that was alive in these water systems." Marilene Ramos, Brazilian Environment Authority
Brazilian police have announced they will seek the arrest of six Samarco executives and managers on charges of negligent homicide, and offences against the environment.
"A dam doesn't break by chance...There is repeated, continual negligence in the actions of a company owned by Vale and BHP." Brazilian Prosecutor
Reporter Ben Knight arrived in Brazil within days of the dam collapse as the search for victims continued in atrocious conditions. Now in his first report for Four Corners, he returns to Brazil to investigate whether multiple warning signs were ignored. What he finds is a catalogue of failure, where even the emergency alert system didn't work.
BHP has distanced itself from the operations of the mine, but the company's bottom line has taken a hit. This week BHP announced a $US5.7 billion half year loss, writing off more than a billion dollars due to the dam disaster.
Screenshots
------------------------------

Technical Specs
------------------------------
* Format : MPEG-4
* Format profile : Base Media
* Codec ID : isom
* File size : 213 MiB
* Duration : 45mn 14s
* Overall bit rate mode : Variable
* Overall bit rate : 658 Kbps
* Writing application : Lavf57.19.100
* Video
* ID : 1
* Format : AVC
* Format/Info : Advanced Video Codec
* Format profile : [email protected]
* Format settings, CABAC : Yes
* Format settings, ReFrames : 3 frames
* Format settings, GOP : M=2, N=50
* Codec ID : avc1
* Codec ID/Info : Advanced Video Coding
* Duration : 45mn 14s
* Bit rate mode : Variable
* Bit rate : 555 Kbps
* Width : 640 pixels
* Height : 360 pixels
* Display aspect ratio : 16:9
* Frame rate mode : Constant
* Frame rate : 25.000 fps
* Standard : Component
* Color space : YUV
* Chroma subsampling : 4:2:0
* Bit depth : 8 bits
* Scan type : Progressive
* Bits/(Pixel*Frame) : 0.096
* Stream size : 180 MiB (84%)
* Language : English
* Color range : Limited
* Audio
* ID : 2
* Format : AAC
* Format/Info : Advanced Audio Codec
* Format profile : LC
* Codec ID : 40
* Duration : 45mn 14s
* Bit rate mode : Variable
* Bit rate : 96.0 Kbps
* Maximum bit rate : 103 Kbps
* Channel(s) : 2 channels
* Channel positions : Front: L R
* Sampling rate : 44.1 KHz
* Compression mode : Lossy
* Stream size : 31.1 MiB (15%)
* Language : English
Links
------------------------------
1) Further Information
* ABC.Four.Corners.Catastrophi...WebRip.AVC.MVGroup.Forum.mp4
Source: http://docuwiki.net/index.php?title=Catastrophic_Failure
Related Torrents
Torrent Name   AGE FILES SIZE

 Date: 07/20/16 05:39   in : Video 

755 days 6 9.9 GB

 Date: 07/20/16 05:38   in : Video 

755 days 7 4.4 GB

 Date: 07/20/16 05:35   in : Video 

755 days 3 7.6 GB

 Date: 07/20/16 05:34   in : Video 

755 days 6 12 GB

 Date: 07/20/16 05:33   in : Video 

755 days 6 6.6 GB

 Date: 07/20/16 05:30   in : Video 

755 days 2 981 MB

 Date: 07/20/16 05:22   in : Video 

755 days 9 6.6 GB

 Date: 07/20/16 05:01   in : Video 

755 days 8 1.4 GB

 Date: 07/20/16 05:00   in : Video 

755 days 7 1.1 GB

 Date: 07/20/16 04:57   in : Video 

755 days 1 1.5 GB