Direct Download American Horror Story S05E10 1080p WEB-DL DD5.1 H264-NTb[rartv] torrent

download
Size: 1.8 GB
Downloaded: 0
Hits: 711
SEASON 5, EPISODE 10 "SHE GETS REVENGE" SYNOPSIS:
Alex enlists John's help in containing an outbreak; Donovan learns The Countess' true intentions; Liz and Iris plan to leave the hotel for good.
SERIES INFO:
8.3/10·IMDb
8.6/10·TV.com
"American Horror Story" was created by the co-creators of "Glee," but the shows have little in common besides that. The show revolves around the Harmons, a family of three, who move from Boston to Los Angeles in order to reconcile past anguish. What the Harmons don't know is that the house they've moved into is haunted. But it's not haunted by Casperesque friendly ghosts -- it's haunted by demonic creatures. The creatures have a history of not only spooking the house's residents but also devouring them. After living in this house, family patriarch and psychiatrist, Ben, may need a shrink of his own.
MEDIA INFO:
General:
Unique ID : 190579794465959179121455109621162584855 (0x8F605552DE363A419D1136E6D6662B17)
Complete name : American.Horror.Story.S05E10.She.Gets.Revenge.1080p.WEB-DL.DD5.1.H.264-NTb.mkv
Format : Matroska
Format version : Version 4 / Version 2
File size : 1.80 GiB
Duration : 50mn 12s
Overall bit rate : 5 145 Kbps
Encoded date : UTC 2015-12-17 11:04:05
Writing application : mkvmerge v8.5.1 ('Where you lead I will follow') 64bit
Writing library : libebml v1.3.3 + libmatroska v1.4.4
IsTruncated : Yes
Video:
ID : 2
Format : AVC
Format/Info : Advanced Video Codec
Format profile : [email protected]
Format settings, CABAC : Yes
Format settings, ReFrames : 4 frames
Codec ID : V_MPEG4/ISO/AVC
Duration : 50mn 12s
Bit rate : 4 659 Kbps
Width : 1 920 pixels
Height : 1 080 pixels
Display aspect ratio : 16:9
Frame rate mode : Constant
Frame rate : 23.976 (24000/1001) fps
Color space : YUV
Chroma subsampling : 4:2:0
Bit depth : 8 bits
Scan type : Progressive
Bits/(Pixel*Frame) : 0.094
Stream size : 1.63 GiB (91%)
Default : Yes
Forced : No
Color range : Limited
Color primaries : BT.709
Transfer characteristics : BT.709
Matrix coefficients : BT.709
Audio:
ID : 3
Format : AC-3
Format/Info : Audio Coding 3
Mode extension : CM (complete main)
Format settings, Endianness : Big
Codec ID : A_AC3
Duration : 50mn 12s
Bit rate mode : Constant
Bit rate : 384 Kbps
Channel(s) : 6 channels
Channel positions : Front: L C R, Side: L R, LFE
Sampling rate : 48.0 KHz
Frame rate : 31.250 fps (1536 spf)
Compression mode : Lossy
Delay relative to video : -15ms
Stream size : 138 MiB (7%)
Language : English
Default : Yes
Forced : No
Text:
ID : 1
Format : UTF-8
Codec ID : S_TEXT/UTF8
Codec ID/Info : UTF-8 Plain Text
Language : English
Default : Yes
Forced : No
https://rarbg.to

Related Torrents
Torrent Name   AGE FILES SIZE

 Date: 12/28/15 23:54   in : Video  HD TV shows 

963 days 1

 Date: 12/28/15 23:48   in : Video  HD TV shows 

963 days 4 2 GB

 Date: 12/28/15 23:05   in : Video  HD TV shows 

963 days 1 1.4 GB

 Date: 12/28/15 22:55   in : Video  HD TV shows 

963 days 1

 Date: 12/28/15 22:24   in : Video  HD TV shows 

963 days 2 814.1 MB

 Date: 12/28/15 22:10   in : Video  HD TV shows 

963 days 1

 Date: 12/28/15 22:05   in : Video  HD TV shows 

963 days 2 886.7 MB

 Date: 12/28/15 21:48   in : Video  HD TV shows 

963 days 1

 Date: 12/28/15 21:38   in : Video  HD TV shows 

963 days 1

 Date: 12/28/15 21:16   in : Video  HD TV shows 

963 days 1