Direct Download Avengers Age of Ultron 2015 TCRip XVID AC3 HQ Hive-CM8 torrent

download torrent
Size: 1.8 GB
Downloaded: 167
Hits: 740
http://www.imdb.com/title/tt2395427/
When Tony Stark tries to jumpstart a dormant peacekeeping program, things go awry and Earth's Mightiest Heroes, including Iron Man, Captain America, Thor, The Incredible Hulk, Black Widow and Hawkeye, are put to the ultimate test as the fate of the planet hangs in the balance. As the villainous Ultron emerges, it is up to The Avengers to stop him from enacting his terrible plans, and soon uneasy alliances and unexpected action pave the way for a global adventure.
Director: Joss Whedon
Writers: Joss Whedon, Stan Lee (comic book)
Stars: Robert Downey Jr., Chris Evans, Mark Ruffalo
Genres: Action | Adventure | Sci-Fi | Thriller
Country: USA
Language: English
Avengers.Age.of.Ultron.2015.TCRip.XVID.AC3.HQ.Hive-CM8
Source: Mandarin 720P Telecine
Audio: Line from MrSeen-Simple-Jiinx
thx
If you want the perfect version here is your chance, it wont get better than this till retail
Notes:
last but not least my version of that great movie, worked 5 days on it, wasnt funny at all, shouldnt have spend that much hours of work on a single movie,
but i wanted to do the perfect version the first time, without the need of a v2, proper, new source,new line, superhdts,hqhdts,readnfo or similar crap.
had the first video before the russian did, was nice nearly unmarked but mostly choppy, tried to fix that for hrs didnt get much better.
than the russian version came,slightly better but marked, tried to remove the marks looked odd, in the meanwhile another source with watermark right top corner
was around, couldnt be blurred without looking bad, also was more disturbing than the russian vid, also choppy so went to trashcan
finally the mandarin video came even with the endcreditscene, nearly free of watermarks, nothing choppy, technically perfect but
the first minute is a translucent logo in the middle of the screen, and a small translucent logo stays for 30mins at the lower right corner but its hardly visible (doesnt bother at all)
the chinese site logo appears 2 times in the movie noticeable for 30secs
and the colouring was a mess all yellow-ish
Encode:
took the mandarin video and tried to fix the colours the normal way, wasnt doable with a single setting.
had to try alternative ways outside vdub. altering one colour had immediate effect on the rest of the movie, was a pita, encoded for hours, wasnt happy
only thing that worked was doing everything manually, black base, white base, rgb,chroma,contrast,brightening,saturation,yuv, lumina
altering a video that much took 12h just for the colours, temporary discspace around 1TB @720p but its totally worth it.
as mentioned above the first minute the site watermark pops up, nearly not visible but its theire, its not blurrable, but it doesnt bother at all
that 2 spots where the watermark comes really visible for 30secs i had to blur cause i didnt like it.
for the Audio i had already fixed the first line release from MrSeen-Simple for hours, when the proper line release came, unfortunately not synced to the mandarin version
instead to the blurred version,which doesnt fit the slightest to the mandarin video i had already done.
so i had to start from scratch again, line had hiss, left and right balance was still off but fixable, the 4min crackle spot at 1h27 or something was still theire.
ran it through my usual cleaning process, and lowered the noise for that 4 mins, cant be removed completely but its better now.
doing lipsync without having the original line was a pita, it was already stretched and cut to fit to the blurred choppy version
and now i had to remove all that work to get it sync to the mandarin video again, it took hours, in the end all worked out perfectly
sadly i did not get the original audio file, coulda saved me hours - maybe next time then
anyways
quality is great now, pretty similar to my iron man 3 release i would say,
have done the usual avi file and a 720p file for the Quality hunters.
totally worth watching, got very nice
If you want the perfect version here is your chance, it wont get better than this till retail
enjoy
Video:720x336 @bitrate 1700 2pass
Audio: English Stereo Line 2.0
Sample: yes included
General
Complete name : Avengers.Age.of.Ultron.2015.TCRip.XVID.AC3.HQ.Hive-CM8.avi
Format : AVI
Format/Info : Audio Video Interleave
File size : 1.83 GiB
Duration : 2h 13mn
Overall bit rate : 1 968 Kbps
Writing application : Nandub v1.0rc2
Writing library : Nandub build 1853/release
Video
ID : 0
Format : MPEG-4 Visual
Format profile : Advanced [email protected]
Format settings, BVOP : 2
Format settings, QPel : Yes
Format settings, GMC : No warppoints
Format settings, Matrix : Default (H.263)
Muxing mode : Packed bitstream
Codec ID : XVID
Codec ID/Hint : XviD
Duration : 2h 13mn
Bit rate : 1 700 Kbps
Width : 720 pixels
Height : 336 pixels
Display aspect ratio : 2.143
Frame rate : 30.000 fps
Color space : YUV
Chroma subsampling : 4:2:0
Bit depth : 8 bits
Scan type : Progressive
Compression mode : Lossy
Bits/(Pixel*Frame) : 0.234
Stream size : 1.58 GiB (86%)
Writing library : XviD 1.2.1 (UTC 2008-12-04)
Audio
ID : 1
Format : AC-3
Format/Info : Audio Coding 3
Mode extension : CM (complete main)
Format settings, Endianness : Big
Codec ID : 2000
Duration : 2h 13mn
Bit rate mode : Constant
Bit rate : 256 Kbps
Channel(s) : 2 channels
Channel positions : Front: L R
Sampling rate : 48.0 KHz
Bit depth : 16 bits
Compression mode : Lossy
Stream size : 244 MiB (13%)
Alignment : Split accross interleaves
Interleave, duration : 33 ms (1.00 video frame)
Interleave, preload duration : 500 ms
http://extraimago.com/image/T7o
Related Torrents
Torrent Name   AGE FILES SIZE

 Date: 07/20/16 05:39   in : Video 

755 days 6 9.9 GB

 Date: 07/20/16 05:38   in : Video 

755 days 7 4.4 GB

 Date: 07/20/16 05:35   in : Video 

755 days 3 7.6 GB

 Date: 07/20/16 05:34   in : Video 

755 days 6 12 GB

 Date: 07/20/16 05:33   in : Video 

755 days 6 6.6 GB

 Date: 07/20/16 05:30   in : Video 

755 days 2 981 MB

 Date: 07/20/16 05:22   in : Video 

755 days 9 6.6 GB

 Date: 07/20/16 05:01   in : Video 

755 days 8 1.4 GB

 Date: 07/20/16 05:00   in : Video 

755 days 7 1.1 GB

 Date: 07/20/16 04:57   in : Video 

755 days 1 1.5 GB