Direct Download Batman V Superman TC (2016) 1080p[Dual Audio][ENG(5.1)-HINDI(5.1)]~{PHDR}~ torrent

download torrent
Size: 4.9 GB
Downloaded: 82053
Hits: 195537
Batman V Superman TC (2016) 1080p[Dual Audio][ENG(5.1)-HINDI(5.1)]~{PHDR}~
Storyline :
Society is fearing there should be no Superman because of his alien like actions and Batman is the one who agrees and will also take Superman down. While Superman fears that Batman's actions are wreckless and fearing others, owner of Lex Corp, Lex Luthor is plotting something that will destroy mankind. Will one of the heroes fall or will Lex Luthor take over Metropolis?
Genere :
Action / Adventure / Sci-Fi
General
Complete name : Batman V Superman TC (2016) 1080p[Dual Audio][ENG(5.1)-HINDI(5.1)]~{PHDR}~
Format : Matroska
Format version : Version 4 / Version 2
File size : 4.89 GiB
Duration : 2h 31mn
Overall bit rate : 4 611 Kbps
Movie name : Batman V Superman TC (2016) 1080p[Dual Audio][ENG(5.1)-HINDI(5.1)]~{PHDR}~
Video
ID : 1
Format : AVC
Format/Info : Advanced Video Codec
Format profile : [email protected]
Format settings, CABAC : Yes
Format settings, ReFrames : 5 frames
Codec ID : V_MPEG4/ISO/AVC
Duration : 2h 31mn
Bit rate : 3 710 Kbps
Width : 1 920 pixels
Height : 800 pixels
Display aspect ratio : 2.40:1
Frame rate mode : Constant
Frame rate : 23.976 (24000/1001) fps
Color space : YUV
Chroma subsampling : 4:2:0
Bit depth : 8 bits
Scan type : Progressive
Bits/(Pixel*Frame) : 0.101
Stream size : 3.92 GiB (80%)
Default : Yes
Forced : No
Audio #1
ID : 2
Format : AC-3
Format/Info : Audio Coding 3
Mode extension : CM (complete main)
Format settings, Endianness : Big
Codec ID : A_AC3
Duration : 2h 31mn
Bit rate mode : Constant
Bit rate : 448 Kbps
Channel(s) : 6 channels
Channel positions : Front: L C R, Side: L R, LFE
Sampling rate : 48.0 KHz
Frame rate : 31.250 fps (1536 spf)
Compression mode : Lossy
Stream size : 486 MiB (10%)
Title : Bluray ~{PHDR}~
Language : Hindi
Default : Yes
Forced : No
Audio #2
ID : 3
Format : AC-3
Format/Info : Audio Coding 3
Mode extension : CM (complete main)
Format settings, Endianness : Big
Codec ID : A_AC3
Duration : 2h 31mn
Bit rate mode : Constant
Bit rate : 448 Kbps
Channel(s) : 6 channels
Channel positions : Front: L C R, Side: L R, LFE
Sampling rate : 48.0 KHz
Frame rate : 31.250 fps (1536 spf)
Compression mode : Lossy
Stream size : 486 MiB (10%)
Default : No
Forced : No
Text
ID : 4
Format : PGS
Muxing mode : zlib
Codec ID : S_HDMV/PGS
Codec ID/Info : Picture based subtitle format used on BDs/HD-DVDs
Duration : 2h 31mn
Bit rate : 8 425 bps
Count of elements : 3074
Stream size : 9.12 MiB (0%)
Title : Bluray ~{PHDR}~
Language : English
Default : Yes
Forced : No
Menu = Yes ( Unnamed )
http://imageshack.us/a/img593/4364/zkex.png
NOTE :
1. SEEDING FROM HIGH SPEED SERVER, ENJOY MAX DOWNLOAD SPEED ;)
2. HINDI AUDIO FROM OWN BLURAY
3. ENjOY THe PERFECTION, FOR THOSE WHO LIKE PERFECTION
4. FOR MORE DETAILS AND UPCOMING U CAN CHECK MY FACEBOOK PAGE
Greatest Gladiator Match in History of Mankind...!!!
CLICK ON LIKE BUTTON TO CONNECT WITH MY PAGE ON FACEBOOK SO U CAN GET ALL THE LATEST STUFF, UPCOMING ETC ON IT
Related Torrents
Torrent Name   AGE FILES SIZE

 Date: 07/20/16 04:50   in : Video  Dubbed Movies 

1187 days 1

 Date: 07/20/16 04:01   in : Video  Dubbed Movies 

1187 days 1 715.4 MB

 Date: 07/20/16 03:02   in : Video  Dubbed Movies 

1187 days 1 1.2 GB

 Date: 07/20/16 00:14   in : Video  Dubbed Movies 

1187 days 1

 Date: 07/20/16 00:05   in : Video  Dubbed Movies 

1187 days 1 431.4 MB

 Date: 07/19/16 23:47   in : Video  Dubbed Movies 

1187 days 1 1.2 GB

 Date: 07/19/16 20:01   in : Video  Dubbed Movies 

1188 days 4 2.6 GB

 Date: 07/19/16 20:00   in : Video  Dubbed Movies 

1188 days 1

 Date: 07/19/16 20:00   in : Video  Dubbed Movies 

1188 days 3 700.4 MB

 Date: 07/19/16 19:58   in : Video  Dubbed Movies 

1188 days 5 701.9 MB