Direct Download Breakthrough S01E05 720p H264 Eng-Ac3 Sub-Ita [TNT Village] torrent

download
Size: 1.3 GB
Downloaded: 0
Hits: 333
Original Post: http://forum.tntvillage.scambioetico.org/index.php?showtopic=483683
[u][b][SIZE=14][color=blue]Breakthrough S01E05 - Energy On The Edge[/SIZE][/color][/b][/u]
[u][b][SIZE=7][color=red]HDTV - 720p - H264 - Eng Ac3 - Sub Ita[/SIZE][/color][/b][/u]
[u][b][SIZE=7][color=black]Documentario National Geographic[/SIZE][/color][/b][/u]
[b][color=green].: Descrizione :.[/color][/b]
[b]Breakthrough[/b] è una serie di documentari prodotti da National Geographic Channel, che cerca di mettere in risalto come il progresso tecnico-scientifico vada ad affrontare problemi su larga scala. Vi è la presenza di Ron Howard, Brian Grazer e General Electric a supporto di tutto ciò.
Akiva Goldsman, attraverso la voce di Jason Bateman, ci porta a visitare le realtà più innovative nel settore dell'energia rinnovabile. Buona visione! Buona visione!
[b][color=green].: Dettagli Tecnici :.[/color][/b]
General
Unique ID : 136159902892791918371244184001411129666 (0x666F71840354624987FDC77E769DA142)
Complete name : Breakthrough.S01E05.720p.x264.Eng.Sub.Ita.Maskul.mkv
Format : Matroska
Format version : Version 4 / Version 2
File size : 1.34 GiB
Duration : 43mn 55s
Overall bit rate : 4 370 Kbps
Movie name : Energy On The Edge
Encoded date : UTC 2015-12-15 08:11:03
Writing application : mkvmerge v8.6.1 ('Flying') 64bit
Writing library : libebml v1.3.3 + libmatroska v1.4.4
DURATION : 00:43:36.964000000
NUMBER_OF_FRAMES : 684
NUMBER_OF_BYTES : 32577
_STATISTICS_WRITING_APP : mkvmerge v8.6.1 ('Flying') 64bit
_STATISTICS_WRITING_DATE_UTC : 2015-12-15 08:11:03
_STATISTICS_TAGS : BPS DURATION NUMBER_OF_FRAMES NUMBER_OF_BYTES
Video
ID : 1
Format : AVC
Format/Info : Advanced Video Codec
Format profile : [email protected]
/* */
Format settings, CABAC : Yes
Format settings, ReFrames : 5 frames
Codec ID : V_MPEG4/ISO/AVC
Duration : 43mn 55s
Bit rate : 3 899 Kbps
Width : 1 280 pixels
Height : 720 pixels
Display aspect ratio : 16:9
Frame rate mode : Constant
Frame rate : 23.976 fps
Color space : YUV
Chroma subsampling : 4:2:0
Bit depth : 8 bits
Scan type : Progressive
Bits/(Pixel*Frame) : 0.176
Stream size : 1.20 GiB (89%)
Writing library : x264 core 148 r2638 7599210
Encoding settings : cabac=1 / ref=5 / deblock=1:0:0 / analyse=0x3:0x113 / me=umh / subme=8 / psy=1 / psy_rd=1.00:0.00 / mixed_ref=1 / me_range=16 / chroma_me=1 / trellis=1 / 8x8dct=1 / cqm=0 / deadzone=21,11 / fast_pskip=1 / chroma_qp_offset=-2 / threads=12 / lookahead_threads=2 / sliced_threads=0 / nr=0 / decimate=1 / interlaced=0 / bluray_compat=0 / constrained_intra=0 / bframes=3 / b_pyramid=2 / b_adapt=2 / b_bias=0 / direct=3 / weightb=1 / open_gop=0 / weightp=2 / keyint=250 / keyint_min=23 / scenecut=40 / intra_refresh=0 / rc_lookahead=50 / rc=crf / mbtree=1 / crf=20.0 / qcomp=0.60 / qpmin=0 / qpmax=69 / qpstep=4 / ip_ratio=1.40 / aq=1:1.00
Default : Yes
Forced : No
Audio
ID : 2
Format : AC-3
Format/Info : Audio Coding 3
Mode extension : CM (complete main)
Format settings, Endianness : Big
Codec ID : A_AC3
Duration : 43mn 55s
Bit rate mode : Constant
Bit rate : 384 Kbps
Channel(s) : 6 channels
Channel positions : Front: L C R, Side: L R, LFE
Sampling rate : 48.0 KHz
Bit depth : 16 bits
Compression mode : Lossy
Stream size : 121 MiB (9%)
Default : Yes
Forced : No
Text
ID : 3
Format : UTF-8
Codec ID : S_TEXT/UTF8
Codec ID/Info : UTF-8 Plain Text
Language : Italian
Default : Yes
Forced : Yes
[b][color=green].: ScreenShot :.[/b][/color]
[b][color=green].: Info Generali :. [/color][/b]
[b]Anno:[/b] 2015
[b]Genere: [/b] Documentario
[b]Durata:[/b] 43m
[b]Audio: [/b]Inglese.
[b]Sottotitoli:[/b] Italiano.
[b][color=green].: Dettagli :.[/color]
Orario di seed e Banda disponibile: [color=red]Dalle 9.00 alle 24.00 tutti i giorni. Banda disponibile 1Mb/s.[/color][/b]
:ok0: :ok0: [color=purple][b][i]Powered by Maskul93.[/b][/i][/color] :ok0: :ok0:
E un rigraziamento ai ragazzi di ItalianSubs! ;)

Related Torrents
Torrent Name   AGE FILES SIZE

 Date: 12/28/15 23:54   in : Video  HD TV shows 

1389 days 1

 Date: 12/28/15 23:48   in : Video  HD TV shows 

1389 days 4 2 GB

 Date: 12/28/15 23:05   in : Video  HD TV shows 

1389 days 1 1.4 GB

 Date: 12/28/15 22:55   in : Video  HD TV shows 

1389 days 1

 Date: 12/28/15 22:24   in : Video  HD TV shows 

1389 days 2 814.1 MB

 Date: 12/28/15 22:10   in : Video  HD TV shows 

1389 days 1

 Date: 12/28/15 22:05   in : Video  HD TV shows 

1389 days 2 886.7 MB

 Date: 12/28/15 21:48   in : Video  HD TV shows 

1389 days 1

 Date: 12/28/15 21:38   in : Video  HD TV shows 

1389 days 1

 Date: 12/28/15 21:16   in : Video  HD TV shows 

1389 days 1