Direct Download Cape Fear 1962 1080p BluRay X264-AMIABLE torrent

download torrent
Size: 7.7 GB
Downloaded: 114
Hits: 220
Video
ID : 1
Format : AVC
Format/Info : Advanced Video Codec
Format profile : [email protected]
Format settings, CABAC : Yes
Format settings, ReFrames : 4 frames
Codec ID : V_MPEG4/ISO/AVC
Duration : 1h 45mn
Bit rate : 8 834 Kbps
Width : 1 920 pixels
Height : 1 040 pixels
Display aspect ratio : 1.85:1
Frame rate mode : Constant
Frame rate : 23.976 (24000/1001) fps
Color space : YUV
Chroma subsampling : 4:2:0
Bit depth : 8 bits
Scan type : Progressive
Bits/(Pixel*Frame) : 0.185
Stream size : 6.38 GiB (83%)
Writing library : x264 core 118 r2085 8a62835
Encoding settings : cabac=1 / ref=4 / deblock=1:0:0 / analyse=0x3:0x113 / me=umh / subme=8 / psy=1 / psy_rd=1.00:0.00 / mixed_ref=1 / me_range=16 / chroma_me=1 / trellis=1 / 8x8dct=1 / cqm=0 / deadzone=21,11 / fast_pskip=1 / chroma_qp_offset=-2 / threads=12 / sliced_threads=0 / nr=0 / decimate=1 / interlaced=0 / bluray_compat=0 / constrained_intra=0 / bframes=3 / b_pyramid=2 / b_adapt=2 / b_bias=0 / direct=3 / weightb=1 / open_gop=0 / weightp=2 / keyint=240 / keyint_min=24 / scenecut=40 / intra_refresh=0 / rc_lookahead=50 / rc=2pass / mbtree=1 / bitrate=8834 / ratetol=1.0 / qcomp=0.60 / qpmin=0 / qpmax=69 / qpstep=4 / cplxblur=20.0 / qblur=0.5 / ip_ratio=1.40 / aq=1:1.00
Language : English
Default : Yes
Forced : No
Audio
ID : 2
Format : DTS
Format/Info : Digital Theater Systems
Mode : 16
Format settings, Endianness : Big
Codec ID : A_DTS
Duration : 1h 45mn
Bit rate mode : Constant
Bit rate : 1 509 Kbps
Channel(s) : 6 channels
Channel(s)_Original : 2 channels
Channel positions : Front: L R
Sampling rate : 48.0 KHz
Frame rate : 93.750 fps (512 spf)
Bit depth : 24 bits
Compression mode : Lossy
Stream size : 1.12 GiB (15%)
Language : English
Default : Yes
Forced : No
Text
ID : 3
Format : UTF-8
Codec ID : S_TEXT/UTF8
Codec ID/Info : UTF-8 Plain Text
Language : English
Default : No
Forced : No
Menu
00:00:00.000 : en:00:00:00.000
00:01:18.120 : en:00:01:18.120
00:05:33.375 : en:00:05:33.375
00:09:00.290 : en:00:09:00.290
00:13:23.678 : en:00:13:23.678
00:20:29.728 : en:00:20:29.728
00:25:30.404 : en:00:25:30.404
00:31:42.901 : en:00:31:42.901
00:42:52.695 : en:00:42:52.695
00:46:13.980 : en:00:46:13.980
00:54:06.452 : en:00:54:06.452
01:02:41.299 : en:01:02:41.299
01:07:34.509 : en:01:07:34.509
01:10:03.241 : en:01:10:03.241
01:18:11.061 : en:01:18:11.061
01:27:16.314 : en:01:27:16.314
01:42:25.181 : en:01:42:25.181
01:45:05.633 : en:01:45:05.633
Related Torrents
Torrent Name   AGE FILES SIZE

 Date: 07/20/16 05:11   in : Video  Highres Movies 

1405 days 2 704.3 MB

 Date: 07/20/16 04:54   in : Video  Highres Movies 

1405 days 1 1 GB

 Date: 07/20/16 04:45   in : Video  Highres Movies 

1405 days 4 949.5 MB

 Date: 07/20/16 04:39   in : Video  Highres Movies 

1405 days 4 2.6 GB

 Date: 07/20/16 04:24   in : Video  Highres Movies 

1405 days 3 6.5 GB

 Date: 07/20/16 03:48   in : Video  Highres Movies 

1405 days 4 1.7 GB

 Date: 07/20/16 03:31   in : Video  Highres Movies 

1405 days 5 1.1 GB

 Date: 07/20/16 03:21   in : Video  Highres Movies 

1405 days 8 2.5 GB

 Date: 07/20/16 02:17   in : Video  Highres Movies 

1405 days 1

 Date: 07/20/16 02:10   in : Video  Highres Movies 

1405 days 4 1.6 GB