Direct Download Casino.Royale.1966.MULTI.BRRip.x264.AC3-HuSh torrent

download
Size: 1.4 GB
Downloaded: 0
Hits: 307
https://www.torrenting.com
Sign up is OPEN - for time being. Come and have fun
.......................................................................................................................General
Unique ID : 199995428554822917516912017888747246096 (0x9675B7ECF507B40B970AA315EE44D210)
Complete name : C:UsersGandalf_HZDesktopTorrentCasino.Royale.1966.MULTI.BRRip.x264.AC3-HuShCasino.Royale.1966.MULTI.BRRip.x264.AC3-HuSh.mkv
Format : Matroska
Format version : Version 4 / Version 2
File size : 1.37 GiB
Duration : 2h 11mn
Overall bit rate : 1 494 Kbps
Movie name : Casino.Royale.1966.MULTI.BRRip.x264.AC3-HuSh
Encoded date : UTC 2013-09-30 01:33:11
Writing application : mkvmerge v6.3.0 ('You can't stop me!') built on Jun 28 2013 20:09:41
Writing library : Lavf55.14.101
Video
ID : 1
Format : AVC
Format/Info : Advanced Video Codec
Format profile : [email protected]
/* */
Format settings, CABAC : Yes
Format settings, ReFrames : 8 frames
Codec ID : V_MPEG4/ISO/AVC
Duration : 2h 11mn
Bit rate : 852 Kbps
Width : 720 pixels
Height : 304 pixels
Display aspect ratio : 2.35:1
Original display aspect rat : 2.35:1
Frame rate mode : Constant
Frame rate : 23.976 fps
Color space : YUV
Chroma subsampling : 4:2:0
Bit depth : 8 bits
Scan type : Progressive
Bits/(Pixel*Frame) : 0.162
Stream size : 773 MiB (55%)
Writing library : x264 core 138 r2345
Encoding settings : cabac=1 / ref=8 / deblock=1:-1:-1 / analyse=0x3:0x133 / me=umh / subme=9 / psy=1 / psy_rd=1.00:0.00 / mixed_ref=1 / me_range=32 / chroma_me=1 / trellis=2 / 8x8dct=1 / cqm=0 / deadzone=21,11 / fast_pskip=0 / chroma_qp_offset=-2 / threads=6 / lookahead_threads=1 / sliced_threads=0 / nr=0 / decimate=1 / interlaced=0 / bluray_compat=0 / constrained_intra=0 / bframes=3 / b_pyramid=2 / b_adapt=2 / b_bias=0 / direct=3 / weightb=1 / open_gop=0 / weightp=2 / keyint=230 / keyint_min=23 / scenecut=40 / intra_refresh=0 / rc_lookahead=60 / rc=2pass / mbtree=1 / bitrate=852 / ratetol=1.0 / qcomp=0.60 / qpmin=10 / qpmax=69 / qpstep=4 / cplxblur=20.0 / qblur=0.5 / vbv_maxrate=17500 / vbv_bufsize=17500 / nal_hrd=none / ip_ratio=1.40 / aq=1:1.00
Language : French
Default : Yes
Forced : No
Audio #1
ID : 2
Format : AC-3
Format/Info : Audio Coding 3
Mode extension : CM (complete main)
Format settings, Endianness : Big
Codec ID : A_AC3
Duration : 2h 11mn
Bit rate mode : Constant
Bit rate : 256 Kbps
Channel(s) : 2 channels
Channel positions : Front: L R
Sampling rate : 48.0 KHz
Compression mode : Lossy
Stream size : 240 MiB (17%)
Title : AC3 2.0
Language : French
Default : Yes
Forced : No
Audio #2
ID : 3
Format : AC-3
Format/Info : Audio Coding 3
Mode extension : CM (complete main)
Format settings, Endianness : Big
Codec ID : A_AC3
Duration : 2h 11mn
Bit rate mode : Constant
Bit rate : 384 Kbps
Channel(s) : 6 channels
Channel positions : Front: L C R, Side: L R, LFE
Sampling rate : 48.0 KHz
Compression mode : Lossy
Stream size : 360 MiB (26%)
Title : DTS 5.1
Language : English
Default : No
Forced : No
Text #1
ID : 4
Format : UTF-8
Codec ID : S_TEXT/UTF8
Codec ID/Info : UTF-8 Plain Text
Title : Forced
Language : French
Default : No
Forced : No
Text #2
ID : 5
Format : UTF-8
Codec ID : S_TEXT/UTF8
Codec ID/Info : UTF-8 Plain Text
Language : French
Default : No
Forced : No
Text #3
ID : 6
Format : UTF-8
Codec ID : S_TEXT/UTF8
Codec ID/Info : UTF-8 Plain Text
Default : Yes
Forced : Yes
Related Torrents
Torrent Name   AGE FILES SIZE

 Date: 12/28/15 23:56   in : Video  Movies 

845 days 4 1.4 GB

 Date: 12/28/15 23:45   in : Video  Movies 

845 days 1

 Date: 12/28/15 23:43   in : Video  Movies 

845 days 5 1.7 GB

 Date: 12/28/15 23:33   in : Video  Movies 

845 days 1

 Date: 12/28/15 22:49   in : Video  Movies 

845 days 1

 Date: 12/28/15 22:46   in : Video  Movies 

845 days 16 2.8 GB

 Date: 12/28/15 22:44   in : Video  Movies 

845 days 6 583.6 MB

 Date: 12/28/15 22:26   in : Video  Movies 

845 days 6 761.6 MB

 Date: 12/28/15 22:08   in : Video  Movies 

845 days 2 1.4 GB

 Date: 12/28/15 21:32   in : Video  Movies 

845 days 1