Direct Download Charlie's Angels (2000) 720p BRRip HEVC x265 [Dual-Audio][Englis torrent

Downloaded: 0
Hits: 1332
[center]
[b][size=7]Charlie's Angels (2000) 720p BRRip HEVC x265 [Dual-Audio][English 5.1+Hindi 2.0] [PKG][/size][/b]
[img]http://s1.postimg.org/8bdolqgrj/Charlies_Angels_2000_Front_Cover_46668.jpg[/img]
[img]http://s11.postimg.org/uzgydwdo3/Untitled.png[/img]
[img]http://img9.uploadhouse.com/fileuploads/15981/15981250a2a3770f9f004bcdf00afac92833ebdb.png[/img]
[quote]
General
Unique ID : 229568146150648212654849709722398993060 (0xACB5377951242BBB90DA41978BC1AAA4)
Complete name : G:Charlie's Angels (2000) 720p BRRip HEVC x265 [Dual-Audio][English 5.1+Hindi 2.0] [PKG]Charlie's Angels (2000) 720p BRRip HEVC x265 [Dual-Audio][English 5.1+Hindi 2.0] [PKG].mkv
Format : Matroska
Format version : Version 2
File size : 1.08 GiB
Duration : 1h 38mn
Overall bit rate : 1 567 Kbps
Encoded date : UTC 2015-05-08 18:16:16
Writing application : mkvmerge v7.7.0 ('Six Voices') 32bit built on Feb 28 2015 23:23:00
DURATION : 01:38:23.968000000
NUMBER_OF_FRAMES : 184499
NUMBER_OF_BYTES : 141695232
Video
ID : 1
Format : HEVC
Format/Info : High Efficiency Video Coding
Codec ID : V_MPEGH/ISO/HEVC
Duration : 1h 38mn
Bit rate : 1 184 Kbps
Width : 1 280 pixels
Height : 536 pixels
Display aspect ratio : 2.40:1
Frame rate mode : Constant
Frame rate : 23.976 fps
Bits/(Pixel*Frame) : 0.072
Stream size : 833 MiB (76%)
Default : Yes
Forced : No
Audio #1
ID : 2
Format : AC-3
Format/Info : Audio Coding 3
Mode extension : CM (complete main)
Format settings, Endianness : Big
Codec ID : A_AC3
Duration : 1h 38mn
Bit rate mode : Constant
Bit rate : 160 Kbps
Channel(s) : 2 channels
Channel positions : Front: L R
Sampling rate : 48.0 KHz
Bit depth : 16 bits
Compression mode : Lossy
Stream size : 113 MiB (10%)
Language : Hindi
Default : Yes
Forced : No
Audio #2
ID : 3
Format : AC-3
Format/Info : Audio Coding 3
Mode extension : CM (complete main)
Format settings, Endianness : Big
Codec ID : A_AC3
Duration : 1h 38mn
Bit rate mode : Constant
Bit rate : 192 Kbps
Channel(s) : 6 channels
Channel positions : Front: L C R, Side: L R, LFE
Sampling rate : 48.0 KHz
Bit depth : 16 bits
Compression mode : Lossy
Stream size : 135 MiB (12%)
Language : English
Default : No
Forced : No
[color=navy][size=6][b]SAMPLE WITHIN TORRENT[/b][/size][/color]
[img]http://icons.iconarchive.com/icons/tribalmarkings/colorflow/256/screenshots-icon.png[/img]
[img]http://s1.postimg.org/vyen9um3j/vlcsnap_2015_05_29_21h44m44s149.png[/img]
[img]http://s1.postimg.org/4xw97j8f3/vlcsnap_2015_05_29_21h49m55s199.png[/img]
[img]http://s1.postimg.org/56yfb7alb/vlcsnap_2015_05_29_21h50m05s33.png[/img]
[img]http://s1.postimg.org/jnlops02n/vlcsnap_2015_05_29_21h50m12s117.png[/img]
[img]http://s1.postimg.org/qyh71wggv/vlcsnap_2015_05_29_21h50m59s64.png[/img]
[img]http://s1.postimg.org/mgew9t0f3/vlcsnap_2015_05_29_21h55m24s149.png[/img]
[img]http://s1.postimg.org/4u2fra2xr/Charlie_s_Angels_2000_720p_BRRip_HEVC_x265_Du.jpg[/img]
[b]Use a reputed media player that can play H.265 (HEVC : High Efficiency Video Coding) Video support.
Media Player Classic - Home Cinema and MPC-BE are recommended!.. VLC is OKay, but MPC variants are preferred.
VLC and players like latest GOM, KMP/PotP with LAV can play HEVC.
And also use latest K-Lite Codec Pack.
In Mobile, Android, Tabs, use a media player like VLC Player, MX Player... that can play H.265 :]
For more info, read the How_to_Play_ file inside the torrent.
Be aware that all HEVC rips will not play on any stand-alone device. You can only watch this on a computer or on devices which have HEVC support.
Be sure that you have the latest versions of VLC or Media Player Classic or SMPlayer. Earlier versions may not work[/b]
[/center]
Related Torrents
Torrent Name   AGE FILES SIZE

 Date: 12/28/15 23:56   in : Video  Movies 

547 days 4 1.4 GB

 Date: 12/28/15 23:45   in : Video  Movies 

547 days 1

 Date: 12/28/15 23:43   in : Video  Movies 

547 days 5 1.7 GB

 Date: 12/28/15 23:33   in : Video  Movies 

547 days 1

 Date: 12/28/15 22:49   in : Video  Movies 

548 days 1

 Date: 12/28/15 22:46   in : Video  Movies 

548 days 16 2.8 GB

 Date: 12/28/15 22:44   in : Video  Movies 

548 days 6 583.6 MB

 Date: 12/28/15 22:26   in : Video  Movies 

548 days 6 761.6 MB

 Date: 12/28/15 22:08   in : Video  Movies 

548 days 2 1.4 GB

 Date: 12/28/15 21:32   in : Video  Movies 

548 days 1