Direct Download Dick Figures: The Movie.2013.True.1080p.BluRay.5.1.x264 . NVEE torrent

Downloaded: 0
Hits: 363
Quick note :
Trackers refresh never most current & so if,
You require a torrent release I have posted in the past, not seeding,...
Please do not hesitate to inform me in any means you find fit to do so.
Torrent requests also "Always Welcome."
FULL_INFOs
99.99% >>> SYNCED GUARANTEED
"Totally scrutinized / analyzed to be a verified torrent."
___________________________________________
Source : Blu-ray ~ 1080p
Spoken Language : English
Audio : 6 ~ Channels Only
Subs Info :
N/A
All .srt UTF-8 .idx & .ass subs can be turned On/Off
_____________________________________
General Metadata
Complete name : Dick Figures: The Movie.2013.True.1080p.BluRay.5.1.x264 . NVEE.mp4
Format : MPEG-4
Format profile : Base Media
Codec ID : isom
File size : 1.51 GiB
Duration : 1h 13mn
Overall bit rate : 2 926 Kbps
Encoded date : UTC 2014-03-24 03:22:30
Tagged date : UTC 2014-03-24 03:22:30
Video
ID : 1
Format : AVC
Format/Info : Advanced Video Codec
Format profile : [email protected]
/* */
Format settings, CABAC : Yes
Format settings, ReFrames : 3 frames
Codec ID : avc1
Codec ID/Info : Advanced Video Coding
Duration : 1h 13mn
Bit rate : 2 476 Kbps
Maximum bit rate : 18.7 Mbps
Width : 1 920 pixels
Height : 1 080 pixels
Display aspect ratio : 16:9
Frame rate mode : Constant
Frame rate : 23.976 fps
Color space : YUV
Chroma subsampling : 4:2:0
Bit depth : 8 bits
Scan type : Progressive
Bits/(Pixel*Frame) : 0.050
Stream size : 1.28 GiB (85%)
Writing library : x264 core 138 r2358 9e941d1
Encoded from Physical Blu-ray / Region A
Audio
ID : 2
Format : AC-3
Format/Info : Audio Coding 3
Mode extension : CM (complete main)
Format settings, Endianness : Big
Codec ID : ac-3
Duration : 1h 13mn
Bit rate mode : Constant
Bit rate : 448 Kbps
Channel(s) : 6 channels
Channel positions : Front: L C R, Side: L R, LFE
Sampling rate : 48.0 KHz
Bit depth : 16 bits
Compression mode : Lossy
Stream size : 237 MiB (15%)
Language : English
Encoded date : UTC 2014-03-24 03:28:41
Tagged date : UTC 2014-03-24 03:29:16
Encoded from Physical Blu-ray 6 Channel audio "Always".
Enj0y !
Related Torrents
Torrent Name   AGE FILES SIZE

 Date: 12/29/15 00:03   in : Video  HD Movies 

847 days 1

 Date: 12/28/15 23:35   in : Video  HD Movies 

847 days 13 2.3 GB

 Date: 12/28/15 22:57   in : Video  HD Movies 

847 days 10 2.7 GB

 Date: 12/28/15 22:51   in : Video  HD Movies 

847 days 1

 Date: 12/28/15 22:30   in : Video  HD Movies 

847 days 1 3.9 GB

 Date: 12/28/15 22:08   in : Video  HD Movies 

847 days 1

 Date: 12/28/15 21:01   in : Video  HD Movies 

847 days 1

 Date: 12/28/15 20:08   in : Video  HD Movies 

847 days 1

 Date: 12/28/15 19:59   in : Video  HD Movies 

847 days 1

 Date: 12/28/15 19:47   in : Video  HD Movies 

847 days 1 1.2 GB