Direct Download DTS Music Video Demo Collection (2013-2015) Part 5 (2015)[BRRip 720p x264 by alE13 DTS/AC3][Eng] torrent

download torrent
Size: 8.7 GB
Downloaded: 14337
Hits: 35624

produkcja: USA
data: 2015
gatunek: pop, soul, metal, rock
reżyseria: ????
opis:
A wide selection of music videos on Blu-ray series "DTS-music Demo".
Szeroki wybór teledysków na Blu-ray serii "DTS-Muzyka Demo". Te dyski demo są prezentują ulubionych artystów
w postaci wycinków z koncertów i indywidualnych klipów w bardzo wysokiej jakości dźwięku. Masz okazję, aby
cieszyć się nie tylko dobrym obrazem a także doskonałym dźwiękiem.
Oryginał ma rozdziałkę 1080p ze względu na wielkość każdego klipu, zmniejszyłam do 720p.
Całość podzielono alfabetycznie na 9 części.
obsada:
total
AC/DC, Adele, A-ha, Alanis Morissette, Alicia Keys, Andrea Bocelli, Andre Rieu, Avicii, B-52s, Beach Boys, the,
Bee Gees, Beyoncé, Billy Joel, Blue Man Group, Bon Jovi, Britney Spears, Caro Emerald, Celine Dion, Chris Isaak,
Cliff Richard, Coldplay, Dave Matthews Band, David Garrett, David Guetta, Deadmau5, Deep Purple, Def Leppard,
Depeche Mode, Diana Krall, Dire Straits, Duran Duran, Eagles, Ed Sheeran, Elton John, Enrique Iglesias, Eric Clapton,
Europe, Foreigner, George Michael, Green Day, Heart, Helene Fischer, Herbie Hancock, Incubus, Iron Maiden, Jane Monheit,
Jeff Beck, Joe Bonamassa, Joe Cocker, Joe Satriani, John Mayer, Josh Groban, Julieta Venegas, Katy Perry, Keane, Killers,
Kings Of Leon, Kylie Minogue, Lady Antebellum, Lady Gaga, Laura Pausini, Led Zeppelin, Lee Ritenour, Leona Lewis,
Leonard Cohen, Linkin Park, Madonna, Metallica, Michael Bolton, Michael Jackson, Mike & The Mechanics, Mumford And Sons,
Muse, Nickelback , Nirvana, O.M.D., Pat Metheny, Paul McCartney, Paul Simon, Peter Frampton, Peter Gabriel, Pharrell Williams,
Phil Collins, Pink, Pink Floyd, Placebo, Police, Porcupine Tree, Pretenders, Queen, Red Hot Chili Peppers, R.E.M., Rihanna,
Robbie Williams, Roger Hodgson (ex. Supertramp), Rolling Stones, Roxette, Roy Orbison, Sade, Sam Smith, Santana, Sarah Brightman,
Schiller, Scooter, Scorpions, Seal, Shakira, Sheryl Crow, Simply Red, Slash , Smashing Pumpkins, the, Steven Wilson, Steve Winwood,
Stevie Wonder, Sting, Supertramp, Take That, Talking Heads, Tarja Turunen, Tiesto, Tina Turner, Tom Petty and the Heartbreakers,
Tony Bennett, Toto, U2, UB40, Whitesnake, Who.
tracklist:
Incubus - Love hurts
Iron Maiden - Fear Of The Dark
Iron Maiden - Hallowed Be Thy Name
Jane Monheit & John Pizzarelli - They Can't Take That Away From Me
Jason Mraz - I'm Yours
Jason Mraz feat. Colbie Caillat - Lucky
Jean Michel Jarre - Aero
Jeff Beck - Apache
Jeff Beck - Led Boots
Jeff Beck - My Baby Left Me
Jim James and Tom Morello - The Ghost of Tom Joad
JJAMZ - Suicide Pact ( Audio only )
Joe Bonamassa - Black Lung Heartache
Joe Cocker - Fire It Up
Joe Satriani - Flying In A Blue Dream [7.1]
John Mayer - Slow Dancing In A Burning Room
John Mayer - Waiting For A World To Change
Julieta Venegas & Gustavo Santaolalla - Algun Dia
Julieta Venegas & Marisa Monte - Ilusion
Julieta Venegas - Limon y Sal
Julieta Venegas - Mirame Bien
Kanye West feat. Lupe Fiasco - Touch The Sky
Katy Perry - Firework
Katy Perry - Roar
Katy Perry - Wide Awake
Keane - Somewhere Only We Know
Kings Of Leon - Sex On Fire
Kings Of Leon - Use Somebody
Kita Klane - The Enemy [7.1]
Kylie Minogue - All The Lovers
La Roux - Bulletproof
Labirinth feat. Emeli Sande - Beneath Your Beautiful
Lady Antebellum - Need You Now [Own The Night World Tour]
Lady Antebellum - Need You Now [The 52nd Annual Grammy Awards]
Lady Gaga - Bad Romance
Lang Lang - [Mozart] Rondo Alla Turca
Laura Pausini - Primavera In Anticipo
Led Zeppelin - Kashmir
Lee Ritenour - Is It You
Lee Ritenour - Possibilities
Legends Of Jazz - The Panther
dane techniczne
optional:
DTS Music Video Demo Collection (2013-2015) part 4 (2015)-alE13\Lady Gaga - Bad Romance.mkv
Format : Matroska
Format version : Version 4 / Version 2
File size : 278 MiB
Duration : 5mn 36s
Overall bit rate : 6 943 Kbps
Movie name : Incubus - Love Hurts
Encoded date : UTC 2016-02-06 02:28:53
Writing application : mkvmerge v8.1.0 ('Psychedelic Postcard') 64bit
Writing library : libebml v1.3.1 + libmatroska v1.4.2
DURATION : 00:05:33.568000000
NUMBER_OF_FRAMES : 10424
NUMBER_OF_BYTES : 18679808
_STATISTICS_WRITING_APP : mkvmerge v8.1.0 ('Psychedelic Postcard') 64bit
_STATISTICS_WRITING_DATE_UT : 2016-02-06 02:28:53
_STATISTICS_TAGS : BPS DURATION NUMBER_OF_FRAMES NUMBER_OF_BYTES
Video
ID : 1
Format : AVC
Format/Info : Advanced Video Codec
Format profile : [email protected]
Format settings, CABAC : Yes
Format settings, ReFrames : 4 frames
Codec ID : V_MPEG4/ISO/AVC
Duration : 5mn 36s
Bit rate : 5 000 Kbps
Width : 1 280 pixels
Height : 720 pixels
Display aspect ratio : 16:9
Frame rate mode : Constant
Frame rate : 25.000 fps
Color space : YUV
Chroma subsampling : 4:2:0
Bit depth : 8 bits
Scan type : Progressive
Bits/(Pixel*Frame) : 0.217
Stream size : 194 MiB (70%)
Title : Lady Gaga - Bad Romance
Writing library : x264 core 140 r2377kMod 1ca7bb9
Language : English
Default : Yes
Forced : No
DURATION : 00:05:36.400000000
NUMBER_OF_FRAMES : 8410
NUMBER_OF_BYTES : 210219869
_STATISTICS_WRITING_APP : mkvmerge v8.1.0 ('Psychedelic Postcard') 64bit
_STATISTICS_WRITING_DATE_UT : 2016-02-06 02:28:53
_STATISTICS_TAGS : BPS DURATION NUMBER_OF_FRAMES NUMBER_OF_BYTES
Audio #1
ID : 2
Format : DTS
Format/Info : Digital Theater Systems
Mode : 16
Format settings, Endianness : Big
Codec ID : A_DTS
Duration : 5mn 36s
Bit rate mode : Constant
Bit rate : 1 510 Kbps
Channel(s) : 6 channels
Channel positions : Front: L C R, Side: L R, LFE
Sampling rate : 48.0 KHz
Bit depth : 24 bits
Compression mode : Lossy
Stream size : 60.5 MiB (22%)
Title : DTS 5.1 [email protected] (24-bit)
Language : English
Default : Yes
Forced : No
Audio #2
ID : 3
Format : AC-3
Format/Info : Audio Coding 3
Mode extension : CM (complete main)
Format settings, Endianness : Big
Codec ID : A_AC3
Duration : 5mn 36s
Bit rate mode : Constant
Bit rate : 448 Kbps
Channel(s) : 6 channels
Channel positions : Front: L C R, Side: L R, LFE
Sampling rate : 48.0 KHz
Compression mode : Lossy
Stream size : 18.0 MiB (6%)
Title : AC3 5.1 [email protected]
Language : English
Default : No
Forced : No
Related Torrents
Torrent Name   AGE FILES SIZE

 Date: 07/20/16 05:39   in : Video 

641 days 6 9.9 GB

 Date: 07/20/16 05:38   in : Video 

641 days 7 4.4 GB

 Date: 07/20/16 05:35   in : Video 

641 days 3 7.6 GB

 Date: 07/20/16 05:34   in : Video 

641 days 6 12 GB

 Date: 07/20/16 05:33   in : Video 

641 days 6 6.6 GB

 Date: 07/20/16 05:30   in : Video 

641 days 2 981 MB

 Date: 07/20/16 05:22   in : Video 

641 days 9 6.6 GB

 Date: 07/20/16 05:01   in : Video 

641 days 8 1.4 GB

 Date: 07/20/16 05:00   in : Video 

641 days 7 1.1 GB

 Date: 07/20/16 04:57   in : Video 

641 days 1 1.5 GB