Direct Download A.Girl.At.My.Door.2014.HDRip.x264.AC3.HORiZON-ArtSubs torrent

Downloaded: 0
Hits: 80
Title: Dohee-ya aka A Girl at My Door
Release: A.Girl.At.My.Door.2014.HDRip.x264.AC3.HORiZON-ArtSubs
IMDB Link:
http://www.imdb.com/title/tt3661798/
Plot: Young-nam was a promising graduate of the police academy before she was transferred to the small seaside village, which was caused by her misconduct. On her first day to the village, she encounters with Dohee who is the girl living in the town, seeming to have somewhat gloomy looking face. As Young-nam tries to accommodate with her new surroundings, an accident of Dohee's grandma getting killed by falling in the seashore cliff happens. As to protect the girl from her stepfather's abuse, Young-nam let Dohee stay at her place but things turn out to be more mysterious as she gets to know her.
General
Complete name : A.Girl.At.My.Door.2014.HDRip.x264.AC3.HORiZON-ArtSubs
Format : Matroska
Format version : Version 2
File size : 2.02 GiB
Duration : 1h 59mn
Overall bit rate : 2 425 Kbps
Movie name : A.Girl.At.My.Door.2014.720p.HDRip.H264-CJCONTENTS
Encoded date : UTC 2014-06-19 23:07:10
Writing application : DVDFab 9.1.4.0
Writing library : libebml v0.7.8 + libmatroska v0.8.1
Video
ID : 1
Format : AVC
Format/Info : Advanced Video Codec
Format profile : [email protected]
/* */
Format settings, CABAC : Yes
Format settings, ReFrames : 2 frames
Codec ID : V_MPEG4/ISO/AVC
Duration : 1h 59mn
Bit rate : 2 185 Kbps
Width : 1 152 pixels
Height : 648 pixels
Display aspect ratio : 16:9
Frame rate mode : Constant
Frame rate : 23.976 fps
Color space : YUV
Chroma subsampling : 4:2:0
Bit depth : 8 bits
Scan type : Progressive
Bits/(Pixel*Frame) : 0.122
Stream size : 1.82 GiB (90%)
Writing library : x264 core
Default : Yes
Forced : No
Color primaries : BT.601 NTSC
Transfer characteristics : BT.709
Matrix coefficients : BT.601
Audio
ID : 2
Format : AC-3
Format/Info : Audio Coding 3
Mode extension : CM (complete main)
Format settings, Endianness : Big
Codec ID : A_AC3
Duration : 1h 59mn
Bit rate mode : Constant
Bit rate : 192 Kbps
Channel count : 2 channels
Channel positions : Front: L R
Sampling rate : 48.0 KHz
Bit depth : 16 bits
Compression mode : Lossy
Stream size : 164 MiB (8%)
Language : English
Default : Yes
Forced : No
Thanks to those helping me seed. Leechers remember, the community depends on you. If nobody shares, the freebies go away. Remember, the only reason you can download this free movie is because others are generous enough to keep sharing it with you. If nobody shares, everybody loses, so even if its for an extra hour or two after you get it, remember, others want to see it too, and they can't without you.
SEE MY OTHERS UPLOADS:
http://thepiratebay.se/user/noriegaRJ
AND SEE THIS ANOTHERS UPLOADS FROM "HORiZON-ArtSubs":
http://thepiratebay.se/user/artsubs
http://thepiratebay.se/user/lletaif
Related Torrents
Torrent Name   AGE FILES SIZE

 Date: 07/20/16 04:50   in : Video  Dubbed Movies 

912 days 1

 Date: 07/20/16 04:01   in : Video  Dubbed Movies 

912 days 1 715.4 MB

 Date: 07/20/16 03:02   in : Video  Dubbed Movies 

912 days 1 1.2 GB

 Date: 07/20/16 00:14   in : Video  Dubbed Movies 

913 days 1

 Date: 07/20/16 00:05   in : Video  Dubbed Movies 

913 days 1 431.4 MB

 Date: 07/19/16 23:47   in : Video  Dubbed Movies 

913 days 1 1.2 GB

 Date: 07/19/16 20:01   in : Video  Dubbed Movies 

913 days 4 2.6 GB

 Date: 07/19/16 20:00   in : Video  Dubbed Movies 

913 days 1

 Date: 07/19/16 20:00   in : Video  Dubbed Movies 

913 days 3 700.4 MB

 Date: 07/19/16 19:58   in : Video  Dubbed Movies 

913 days 5 701.9 MB