Direct Download Mad Max Fury Road (2015) 1080p[Dual Audio][ENG(5.1)-HINDI(5.1)]~{PHDR}~ torrent

download torrent
Size: 4.1 GB
Downloaded: 77
Hits: 187
Mad Max Fury Road (2015) 1080p[Dual Audio][ENG(5.1)-HINDI(5.1)]~{PHDR}~
Storyline :
In a stark desert landscape where humanity is broken, two rebels just might be able to restore order: Max, a man of action and of few words, and Furiosa, a woman of action who is looking to make it back to her childhood homeland.
Cast :
Tom Hardy ... Max Rockatansky
Charlize Theron ... Imperator Furiosa
Nicholas Hoult ... Nux
Hugh Keays-Byrne ... Immortan Joe
Josh Helman ... Slit
Genre :
Action | Adventure | Sci-Fi | Thriller
General
Complete name : Mad Max Fury Road (2015) 1080p[Dual Audio][ENG(5.1)-HINDI(5.1)]~{PHDR}~
Format : Matroska
Format version : Version 4 / Version 2
File size : 4.01 GiB
Duration : 2h 0mn
Overall bit rate : 4 773 Kbps
Movie name : Mad Max Fury Road (2015) 1080p[Dual Audio][ENG(5.1)-HINDI(5.1)]~{PHDR}~
Video
ID : 1
Format : AVC
Format/Info : Advanced Video Codec
Format profile : [email protected]
Format settings, CABAC : Yes
Format settings, ReFrames : 4 frames
Codec ID : V_MPEG4/ISO/AVC
Duration : 2h 0mn
Bit rate : 3 679 Kbps
Width : 1 920 pixels
Height : 800 pixels
Display aspect ratio : 2.40:1
Frame rate mode : Constant
Frame rate : 23.976 fps
Color space : YUV
Chroma subsampling : 4:2:0
Bit depth : 8 bits
Scan type : Progressive
Bits/(Pixel*Frame) : 0.100
Stream size : 3.02 GiB (75%)
Writing library : x264 core 146 r2538kMod 121396c
Default : Yes
Forced : No
Audio #1
ID : 2
Format : AC-3
Format/Info : Audio Coding 3
Mode extension : CM (complete main)
Format settings, Endianness : Big
Codec ID : A_AC3
Duration : 2h 0mn
Bit rate mode : Constant
Bit rate : 640 Kbps
Channel(s) : 6 channels
Channel positions : Front: L C R, Side: L R, LFE
Sampling rate : 48.0 KHz
Bit depth : 16 bits
Compression mode : Lossy
Stream size : 551 MiB (13%)
Title : Bluray ~{PHDR}~
Language : English
Default : Yes
Forced : No
Audio #2
ID : 3
Format : AC-3
Format/Info : Audio Coding 3
Mode extension : CM (complete main)
Format settings, Endianness : Big
Codec ID : A_AC3
Duration : 2h 0mn
Bit rate mode : Constant
Bit rate : 448 Kbps
Channel(s) : 6 channels
Channel positions : Front: L C R, Side: L R, LFE
Sampling rate : 48.0 KHz
Bit depth : 16 bits
Compression mode : Lossy
Stream size : 386 MiB (9%)
Title : Bluray ~{PHDR}~
Language : Hindi
Default : No
Forced : No
Text #1
ID : 4
Format : PGS
Muxing mode : zlib
Codec ID : S_HDMV/PGS
Codec ID/Info : The same subtitle format used on BDs/HD-DVDs
Title : Bluray
Language : English
Default : Yes
Forced : No
Text #2
ID : 5
Format : PGS
Muxing mode : zlib
Codec ID : S_HDMV/PGS
Codec ID/Info : The same subtitle format used on BDs/HD-DVDs
Title : Bluray
Language : Hindi
Default : No
Forced : No

NOTE :
1. SEEDING FROM HIGH SPEED SERVER, ENJOY MAX DOWNLOAD SPEED ;)
2. FIRST ON NET WITH HINDI AUDIO, HINDI AUDIO FROM OWN BLURAY
3. ENjOY THe PERFECTION, FOR THOSE WHO LIKE PERFECTION
4. FOR MORE DETAILS AND UPCOMING U CAN CHECK MY FACEBOOK PAGE
FiRst ON NeT...!!!
CLICK ON LIKE BUTTON TO CONNECT WITH MY PAGE ON FACEBOOK SO U CAN GET ALL THE LATEST STUFF, UPCOMING ETC ON IT
Related Torrents
Torrent Name   AGE FILES SIZE

 Date: 07/20/16 04:50   in : Video  Dubbed Movies 

1157 days 1

 Date: 07/20/16 04:01   in : Video  Dubbed Movies 

1157 days 1 715.4 MB

 Date: 07/20/16 03:02   in : Video  Dubbed Movies 

1157 days 1 1.2 GB

 Date: 07/20/16 00:14   in : Video  Dubbed Movies 

1157 days 1

 Date: 07/20/16 00:05   in : Video  Dubbed Movies 

1157 days 1 431.4 MB

 Date: 07/19/16 23:47   in : Video  Dubbed Movies 

1157 days 1 1.2 GB

 Date: 07/19/16 20:01   in : Video  Dubbed Movies 

1157 days 4 2.6 GB

 Date: 07/19/16 20:00   in : Video  Dubbed Movies 

1157 days 1

 Date: 07/19/16 20:00   in : Video  Dubbed Movies 

1157 days 3 700.4 MB

 Date: 07/19/16 19:58   in : Video  Dubbed Movies 

1157 days 5 701.9 MB