Direct Download Falling Skies S05 HDTV XviD FUM torrent

download
Size: 3.4 GB
Downloaded: 0
Hits: 36981
Synopsis / Plot
Survivors of an alien attack on earth gather together to fight for their lives and fight back.
Creator: Robert Rodat
Stars: Noah Wyle, Drew Roy, Maxim Knight
http://www.imdb.com/title/tt1462059/
General
Complete name : Falling.Skies.S05.HDTV.XviD-FUM
Format : AVI
Format/Info : Audio Video Interleave
File size : 347 MiB - 379 MiB
Duration : 40mn 58s - 47mn 37s
Overall bit rate : 1 115 Kbps - 1 184 Kbps
Writing library : VirtualDub build 35491/release
Video
ID : 0
Format : MPEG-4 Visual
Format profile : Advanced [email protected]
Format settings, BVOP : 2
Format settings, QPel : No
Format settings, GMC : No warppoints
Format settings, Matrix : Default (H.263)
Muxing mode : Packed bitstream
Codec ID : XVID
Codec ID/Hint : XviD
Duration : 40mn 58s - 47mn 37s
Bit rate : 977 Kbps - 1 047 Kbps
Width : 624 pixels
Height : 352 pixels
Display aspect ratio : 16:9
Frame rate : 23.976 fps
Color space : YUV
Chroma subsampling : 4:2:0
Bit depth : 8 bits
Scan type : Progressive
Compression mode : Lossy
Bits/(Pixel*Frame) : 0.186 - 0.199
Stream size : 306 MiB - 333 MiB (88%)
Writing library : XviD 64 - XviD 66
Audio
ID : 1
Format : MPEG Audio
Format version : Version 1
Format profile : Layer 3
Mode : Joint stereo
Mode extension : MS Stereo
Codec ID : 55
Codec ID/Hint : MP3
Duration : 40mn 58s - 47mn 37s
Bit rate mode : Constant
Bit rate : 128 Kbps
Channel(s) : 2 channels
Sampling rate : 48.0 KHz
Compression mode : Lossy
Stream size : 37.5 MiB - 43.6 MiB (11%)
Alignment : Split accross interleaves
Interleave, duration : 42 ms (1.00 video frame)
Interleave, preload duration : 500 ms

Related Torrents
Torrent Name   AGE FILES SIZE

 Date: 12/29/15 00:13   in : Video  TV shows 

1439 days 12 105.3 MB

 Date: 12/29/15 00:12   in : Video  TV shows 

1439 days 12 207.2 MB

 Date: 12/29/15 00:07   in : Video  TV shows 

1439 days 4 83.6 MB

 Date: 12/29/15 00:05   in : Video  TV shows 

1439 days 1

 Date: 12/29/15 00:04   in : Video  TV shows 

1439 days 12 277.3 MB

 Date: 12/29/15 00:00   in : Video  TV shows 

1439 days 1

 Date: 12/28/15 23:45   in : Video  TV shows 

1439 days 12 164.2 MB

 Date: 12/28/15 23:42   in : Video  TV shows 

1439 days 4 264.7 MB

 Date: 12/28/15 23:40   in : Video  TV shows 

1439 days 1

 Date: 12/28/15 23:37   in : Video  TV shows 

1439 days 12 362.1 MB