Direct Download Forces.Spéciales.2011.DVDRip.x264.AC3.RoSubbed-playSD torrent

Downloaded: 0
Hits: 317
https://www.torrenting.com
Sign up is OPEN - for time being. Come and have fun.
General
Unique ID : 194152524676775519454263832776921588194 (0x92106A85E123FEE3A72139067D3C21E2)
Complete name : C:DownloadsForces.Spciales.2011.DVDRip.x264.AC3.RoSubbed-playSDForces.Spciales.2011.DVDRip.x264.AC3.RoSubbed-playSD.mkv
Format : Matroska
Format version : Version 2
File size : 1.26 GiB
Duration : 1h 48mn
Overall bit rate : 1 657 Kbps
Encoded date : UTC 2015-07-07 14:15:10
Writing application : mkvmerge v7.0.0 ('Where We Going') 32bit built on Jun 9 2014 15:08:34
Writing library : libebml v1.3.0 + libmatroska v1.4.1
_STATISTICS_WRITING_APP : mkvmerge v7.0.0 ('Where We Going') 32bit built on Jun 9 2014 15:08:34
_STATISTICS_WRITING_DATE_UTC : 2015-07-07 14:15:10
_STATISTICS_TAGS : BPS DURATION NUMBER_OF_FRAMES NUMBER_OF_BYTES
DURATION : 01:48:51.872000000
NUMBER_OF_FRAMES : 204121
NUMBER_OF_BYTES : 313529856
Video
ID : 1
Format : AVC
Format/Info : Advanced Video Codec
Format profile : [email protected]
Format settings, CABAC : Yes
Format settings, ReFrames : 4 frames
Codec ID : V_MPEG4/ISO/AVC
Duration : 1h 48mn
Bit rate : 1 240 Kbps
Width : 720 pixels
Height : 306 pixels
Display aspect ratio : 2.35:1
Frame rate mode : Constant
Frame rate : 23.976 fps
Color space : YUV
Chroma subsampling : 4:2:0
Bit depth : 8 bits
Scan type : Progressive
Bits/(Pixel*Frame) : 0.235
Stream size : 966 MiB (75%)
Writing library : x264 core 125 r2200 999b753
Encoding settings : cabac=1 / ref=5 / deblock=1:-3:-3 / analyse=0x3:0x113 / me=umh / subme=8 / psy=1 / psy_rd=0.00:0.00 / mixed_ref=1 / me_range=16 / chroma_me=1 / trellis=2 / 8x8dct=1 / cqm=0 / deadzone=21,11 / fast_pskip=1 / chroma_qp_offset=0 / threads=6 / lookahead_threads=1 / sliced_threads=0 / nr=0 / decimate=1 / interlaced=0 / bluray_compat=0 / constrained_intra=0 / bframes=5 / b_pyramid=1 / b_adapt=2 / b_bias=0 / direct=3 / weightb=1 / open_gop=0 / weightp=2 / keyint=240 / keyint_min=23 / scenecut=40 / intra_refresh=0 / rc_lookahead=50 / rc=crf / mbtree=1 / crf=19.0 / qcomp=0.60 / qpmin=0 / qpmax=69 / qpstep=4 / ip_ratio=1.40 / aq=1:1.00
Default : Yes
Forced : No
Audio
ID : 2
Format : AC-3
Format/Info : Audio Coding 3
Mode extension : CM (complete main)
Format settings, Endianness : Big
Codec ID : A_AC3
Duration : 1h 48mn
Bit rate mode : Constant
Bit rate : 384 Kbps
Channel(s) : 6 channels
Channel positions : Front: L C R, Side: L R, LFE
Sampling rate : 48.0 KHz
Compression mode : Lossy
Stream size : 299 MiB (23%)
Default : Yes
Forced : No
Related Torrents
Torrent Name   AGE FILES SIZE

 Date: 12/28/15 23:56   in : Video  Movies 

959 days 4 1.4 GB

 Date: 12/28/15 23:45   in : Video  Movies 

959 days 1

 Date: 12/28/15 23:43   in : Video  Movies 

959 days 5 1.7 GB

 Date: 12/28/15 23:33   in : Video  Movies 

959 days 1

 Date: 12/28/15 22:49   in : Video  Movies 

959 days 1

 Date: 12/28/15 22:46   in : Video  Movies 

959 days 16 2.8 GB

 Date: 12/28/15 22:44   in : Video  Movies 

959 days 6 583.6 MB

 Date: 12/28/15 22:26   in : Video  Movies 

959 days 6 761.6 MB

 Date: 12/28/15 22:08   in : Video  Movies 

959 days 2 1.4 GB

 Date: 12/28/15 21:32   in : Video  Movies 

959 days 1