Direct Download Hardcore Henry (2015) HQ 1080p Blu-ray x264 DTS-HDMA 5.1 MSubs -DDR torrent

download torrent
Size: 9.7 GB
Downloaded: 13592
Hits: 29387

- HollyWooD Movie-
Hardcore Henry
HQ 1080P / x264 / DTS-HDMA 5.1
English, Spanish & French subtitle(s)
Source : *** IPT Blu-ray CCE ***
Format : Matroska
File size : 9.61 GiB
Duration : 1h 36mn
Overall bit rate : 14.2 Mbps
Encoded date : UTC 2016-07-15 20:22:23
Video
Format : AVC
Format/Info : Advanced Video Codec
Format profile : [email protected]/* */
Duration : 1h 36mn
Bit rate : 10 000 Kbps
Width : 1 920 pixels
Height : 1 040 pixels
Display aspect ratio : 1.85:1
Frame rate mode : Constant
Frame rate : 23.976 (24000/1001) fps
Color space : YUV
Chroma subsampling : 4:2:0
Bit depth : 8 bits
Scan type : Progressive
Bits/(Pixel*Frame) : 0.209
Stream size : 6.73 GiB (70%)
Language : English
Default : Yes
Forced : No
Color range : Limited
Color primaries : BT.709
Audio
Format : DTS
Format/Info : Digital Theater Systems
Format profile : MA / Core
Bit rate mode : Variable / Constant
Duration : 1h 36mn
Bit rate mode : Variable / Constant
Bit rate : 4 256 Kbps / 1 509 Kbps
Channel(s) : 6 channels
Channel positions : Front: L C R, Side: L R, LFE
Sampling rate : 48.0 KHz
Frame rate : 93.750 fps (512 spf)
Bit depth : 24 bits
Compression mode : Lossless / Lossy
Stream size : 2.88 GiB (30%)
Language : English
Default : Yes
Forced : No
Chapters : YES
Sample : Included
A DDR Rxclusive Encode
Related Torrents
Torrent Name   AGE FILES SIZE

 Date: 07/20/16 05:39   in : Video 

702 days 6 9.9 GB

 Date: 07/20/16 05:38   in : Video 

702 days 7 4.4 GB

 Date: 07/20/16 05:35   in : Video 

702 days 3 7.6 GB

 Date: 07/20/16 05:34   in : Video 

702 days 6 12 GB

 Date: 07/20/16 05:33   in : Video 

702 days 6 6.6 GB

 Date: 07/20/16 05:30   in : Video 

702 days 2 981 MB

 Date: 07/20/16 05:22   in : Video 

702 days 9 6.6 GB

 Date: 07/20/16 05:01   in : Video 

702 days 8 1.4 GB

 Date: 07/20/16 05:00   in : Video 

702 days 7 1.1 GB

 Date: 07/20/16 04:57   in : Video 

702 days 1 1.5 GB