Direct Download Horrible Bosses 2011 Extended.1080p.BluRay.5.1 x264 . NVEE torrent

download
Size: 2.3 GB
Downloaded: 0
Hits: 963
Quick note :
Trackers refresh never most current & so if,
You require a torrent release I have posted in the past, not seeding,...
Please do not hesitate to inform me in any means you find fit to do so.
Torrent requests also "Always Welcome."
FULL_INFOs
99.99% >>> SYNCED GUARANTEED
"Totally scrutinized / analyzed to be a verified torrent."
___________________________________________
Source : Blu-ray ~ 1080p
Spoken Language : English
Audio : 6 ~ Channels Only
Subs Info :
x12 ~ Multisubs .srt
All .srt UTF-8 .idx & .ass subs can be turned On/Off
_____________________________________
General Metadata
Complete name : Horrible Bosses 2011.Extended.1080p.BluRay.5.1.x264 . NVEE.mp4
Format : MPEG-4
Format profile : Base Media
Codec ID : isom
File size : 2.26 GiB
Duration : 1h 45mn
Overall bit rate : 3 062 Kbps
Encoded date : UTC 2015-12-26 16:31:56
Tagged date : UTC 2015-12-26 16:31:56
Video
ID : 1
Format : AVC
Format/Info : Advanced Video Codec
Format profile : [email protected]
Format settings, CABAC : Yes
Format settings, ReFrames : 5 frames
Codec ID : avc1
Codec ID/Info : Advanced Video Coding
Duration : 1h 45mn
Bit rate : 2 421 Kbps
Maximum bit rate : 9 105 Kbps
Width : 1 920 pixels
Height : 1 080 pixels
Display aspect ratio : 16:9
Frame rate mode : Constant
Frame rate : 23.976 fps
Color space : YUV
Chroma subsampling : 4:2:0
Bit depth : 8 bits
Scan type : Progressive
Bits/(Pixel*Frame) : 0.049
Stream size : 1.78 GiB (79%)
Writing library : x264 core 148 r2638 7599210
Encoded from Physical Blu-ray / Region free
Audio
ID : 2
Format : AC-3
Format/Info : Audio Coding 3
Mode extension : CM (complete main)
Format settings, Endianness : Big
Codec ID : ac-3
Duration : 1h 45mn
Bit rate mode : Constant
Bit rate : 640 Kbps
Maximum bit rate : 676 Kbps
Channel(s) : 6 channels
Channel positions : Front: L C R, Side: L R, LFE
Sampling rate : 48.0 KHz
Bit depth : 16 bits
Compression mode : Lossy
Stream size : 483 MiB (21%)
Language : English
Encoded date : UTC 2015-12-26 16:34:12
Tagged date : UTC 2015-12-26 16:34:43
Encoded from Physical Blu-ray 6 Channel audio "Only".
Enj0y !

Related Torrents
Torrent Name   AGE FILES SIZE

 Date: 12/29/15 00:03   in : Video  HD Movies 

1563 days 1

 Date: 12/28/15 22:57   in : Video  HD Movies 

1563 days 10 2.7 GB

 Date: 12/28/15 22:51   in : Video  HD Movies 

1563 days 1

 Date: 12/28/15 22:30   in : Video  HD Movies 

1563 days 1 3.9 GB

 Date: 12/28/15 22:08   in : Video  HD Movies 

1563 days 1

 Date: 12/28/15 21:01   in : Video  HD Movies 

1563 days 1

 Date: 12/28/15 20:08   in : Video  HD Movies 

1563 days 1

 Date: 12/28/15 19:59   in : Video  HD Movies 

1563 days 1

 Date: 12/28/15 19:47   in : Video  HD Movies 

1563 days 1 1.2 GB

 Date: 12/28/15 19:31   in : Video  HD Movies 

1563 days 6 8.8 GB