Direct Download Humandroid (2015).DVDrip.XviD - Italian English.Ac3.5.1.Sub.ita. torrent

Downloaded: 0
Hits: 345
Humandroid (2015).DVDrip.XviD - Italian English.Ac3.5.1.Sub.ita.eng.MIRCrew
[center]
[color=red][b][img]http://s19.postimg.org/w9ws99nmb/banner_mircrew_original_2.png[/img]
[u]NO FOUND ONLY ORIGINAL RELEASE[/u]
Humandroid (2015)
[img]http://i.imgur.com/kQVD0Hs.png[/img]
[URL=http://www.imdb.com/title/tt3125324/][IMG]http://www.userlogos.org/files/logos/Sucka/imdb_new.png[/IMG][/URL]
[img]http://s19.postimg.org/vz5tzn42b/1_scheda.png[/img]
Titolo originale Beyond the Lights
Lingua originale inglese
Paese di produzione Stati Uniti
Anno 2014
Durata 116 min
Colore colore
Audio sonoro
Genere drammatico, sentimentale
Regia Gina Prince-Bythewood
Soggetto Gina Prince-Bythewood
Produttore Stephanie Allain, Reggie Rock Bythewood, Ryan Kavanaugh
Casa di produzione Undisputed Cinema, Homegrown Pictures
Fotografia Tami Reiker
Montaggio Terilyn A. Shropshire
Musiche Mark Isham
[img]http://s19.postimg.org/q8fnlww2b/1_cast.png[/img]
Gugu Mbatha-Raw: Noni
Minnie Driver: Macy Jean
Nate Parker: Kaz
Danny Glover: Cpt. Nicol
Machine Gun Kelly: Kid Culprit
Darryl Stephens: Quentin
Elaine Tan: April
Tyler Christopher: Liam
Benito Martinez: Jesse Soria
Aisha Hinds: J Stanley
[img]http://s19.postimg.org/okgi79i6r/1_trama.png[/img]
Le pressioni del successo stanno portando la cantante Noni sull'orlo del baratro, fino a quando non conosce Kaz, un giovane poliziotto che la aiuta e la incoraggia.........
[img]http://s19.postimg.org/fzn6g380j/1_story.png[/img]
The pressures of fame have superstar singer Noni on the edge, until she meets Kaz, a young cop who works to help her find the courage to develop her own voice and break free to become the artist she was meant to be.................
[img]http://extraimago.com/images/2015/05/14/vlcsnap-2015-05-14-14h27m08s207.png[/img]
[img]http://extraimago.com/images/2015/05/14/vlcsnap-2015-05-14-14h27m27s141.png[/img]
[img]http://extraimago.com/images/2015/05/14/vlcsnap-2015-05-14-14h27m45s62.png[/img]
[IMG]http://img153.imageshack.us/img153/3158/restateinseedblood.gif[/img]
[img]http://imgur.com/lvhU6.gif[/img]
[img]http://s19.postimg.org/a2jaz9qvn/1_dati.png[/img]
[spoiler]
General
Complete name : Humandroid (2015).ita.eng.sub.ita.eng.MIRCrewHumandroid (2015).ita.eng.sub.ita.eng.MIRCrew.avi
Format : AVI
Format/Info : Audio Video Interleave
Format profile : OpenDML
File size : 1.99 GiB
Duration : 1h 55mn
Overall bit rate : 2 471 Kbps
Writing application : VirtualDubMod 1.5.4.1 (build 2178/release)
Writing library : VirtualDubMod build 2178/release
Video
ID : 0
Format : MPEG-4 Visual
Format profile : Advanced [email protected]
Format settings, BVOP : 1
Format settings, QPel : No
Format settings, GMC : No warppoints
Format settings, Matrix : Custom
Codec ID : XVID
Codec ID/Hint : XviD
Duration : 1h 55mn
Bit rate : 1 627 Kbps
Width : 720 pixels
Height : 304 pixels
Display aspect ratio : 2.35:1
Frame rate : 25.000 fps
Color space : YUV
Chroma subsampling : 4:2:0
Bit depth : 8 bits
Scan type : Progressive
Compression mode : Lossy
Bits/(Pixel*Frame) : 0.297
Stream size : 1.31 GiB (66%)
Writing library : XviD 64
Audio #1
ID : 1
Format : AC-3
Format/Info : Audio Coding 3
Mode extension : CM (complete main)
Codec ID : 2000
Duration : 1h 55mn
Bit rate mode : Constant
Bit rate : 384 Kbps
Channel(s) : 6 channels
Channel positions : Front: L C R, Side: L R, LFE
Sampling rate : 48.0 KHz
Bit depth : 16 bits
Compression mode : Lossy
Stream size : 317 MiB (16%)
Alignment : Split accross interleaves
Interleave, duration : 96 ms (2.40 video frames)
Interleave, preload duration : 96 ms
Language : Italian
Audio #2
ID : 2
Format : AC-3
Format/Info : Audio Coding 3
Mode extension : CM (complete main)
Codec ID : 2000
Duration : 1h 55mn
Bit rate mode : Constant
Bit rate : 448 Kbps
Channel(s) : 6 channels
Channel positions : Front: L C R, Side: L R, LFE
Sampling rate : 48.0 KHz
Bit depth : 16 bits
Compression mode : Lossy
Stream size : 370 MiB (18%)
Alignment : Split accross interleaves
Interleave, duration : 96 ms (2.40 video frames)
Interleave, preload duration : 96 ms
Language : English
[/spoiler]
[/color][/b][/center]
Related Torrents
Torrent Name   AGE FILES SIZE

 Date: 12/28/15 23:56   in : Video  Movies 

959 days 4 1.4 GB

 Date: 12/28/15 23:45   in : Video  Movies 

959 days 1

 Date: 12/28/15 23:43   in : Video  Movies 

959 days 5 1.7 GB

 Date: 12/28/15 23:33   in : Video  Movies 

959 days 1

 Date: 12/28/15 22:49   in : Video  Movies 

959 days 1

 Date: 12/28/15 22:46   in : Video  Movies 

959 days 16 2.8 GB

 Date: 12/28/15 22:44   in : Video  Movies 

959 days 6 583.6 MB

 Date: 12/28/15 22:26   in : Video  Movies 

959 days 6 761.6 MB

 Date: 12/28/15 22:08   in : Video  Movies 

959 days 2 1.4 GB

 Date: 12/28/15 21:32   in : Video  Movies 

959 days 1