Direct Download IMAX Mummies Secrets of the Pharaohs 2007 720p Brrip x264 SSloco torrent

download torrent
Size: 330.3 MB
Downloaded: 135
Hits: 286
Source:IMAX.Mummies.Secrets.of.the.Pharaohs.2007.720p.BluRay.DTS.x264-SpaceHD
Media Info
Format : MPEG-4
Format profile : Base Media
Codec ID : isom
File size : 330 MiB
Duration : 38mn 41s
Overall bit rate mode : Variable
Overall bit rate : 1 193 Kbps
Encoded date : UTC 2015-05-02 00:14:00
Tagged date : UTC 2015-05-02 00:14:00
Video
ID : 1
Format : AVC
Format/Info : Advanced Video Codec
Format profile : [email protected]
Format settings, CABAC : Yes
Format settings, ReFrames : 4 frames
Codec ID : avc1
Codec ID/Info : Advanced Video Coding
Duration : 38mn 41s
Bit rate : 1 000 Kbps
Maximum bit rate : 11.1 Mbps
Width : 1 280 pixels
Height : 720 pixels
Display aspect ratio : 16:9
Frame rate mode : Constant
Frame rate : 23.976 fps
Color space : YUV
Chroma subsampling : 4:2:0
Bit depth : 8 bits
Scan type : Progressive
Bits/(Pixel*Frame) : 0.045
Stream size : 277 MiB (84%)
Writing library : x264 core 146 r2538 121396c
Encoding settings : cabac=1 / ref=2 / deblock=1:-1:-1 / analyse=0x3:0x113 / me=hex / subme=6 / psy=1 / psy_rd=1.00:0.15 / mixed_ref=1 / me_range=16 / chroma_me=1 / trellis=1 / 8x8dct=1 / cqm=0 / deadzone=21,11 / fast_pskip=1 / chroma_qp_offset=-3 / threads=6 / lookahead_threads=1 / sliced_threads=0 / nr=0 / decimate=1 / interlaced=0 / bluray_compat=0 / constrained_intra=0 / bframes=3 / b_pyramid=2 / b_adapt=1 / b_bias=0 / direct=1 / weightb=1 / open_gop=0 / weightp=1 / keyint=240 / keyint_min=23 / scenecut=40 / intra_refresh=0 / rc_lookahead=30 / rc=2pass / mbtree=1 / bitrate=1000 / ratetol=1.0 / qcomp=0.60 / qpmin=0 / qpmax=69 / qpstep=4 / cplxblur=20.0 / qblur=0.5 / vbv_maxrate=62500 / vbv_bufsize=78125 / nal_hrd=none / filler=0 / ip_ratio=1.40 / aq=1:1.00
Encoded date : UTC 2015-05-02 00:14:00
Tagged date : UTC 2015-05-02 00:16:17
Color primaries : BT.709
Transfer characteristics : BT.709
Matrix coefficients : BT.709
Color range : Limited
Audio
ID : 2
Format : AAC
Format/Info : Advanced Audio Codec
Format profile : HE-AAC / LC
Codec ID : 40
Duration : 38mn 41s
Bit rate mode : Variable
Bit rate : 192 Kbps
Maximum bit rate : 257 Kbps
Channel(s) : 6 channels
Channel positions : Front: L C R, Side: L R, LFE
Sampling rate : 48.0 KHz / 24.0 KHz
Compression mode : Lossy
Stream size : 52.7 MiB (16%)
Language : English
Encoded date : UTC 2015-05-02 00:10:34
Tagged date : UTC 2015-05-02 00:16:17
Related Torrents
Torrent Name   AGE FILES SIZE

 Date: 07/20/16 05:11   in : Video  Highres Movies 

729 days 2 704.3 MB

 Date: 07/20/16 04:54   in : Video  Highres Movies 

729 days 1 1 GB

 Date: 07/20/16 04:45   in : Video  Highres Movies 

729 days 4 949.5 MB

 Date: 07/20/16 04:39   in : Video  Highres Movies 

729 days 4 2.6 GB

 Date: 07/20/16 04:24   in : Video  Highres Movies 

729 days 3 6.5 GB

 Date: 07/20/16 03:48   in : Video  Highres Movies 

729 days 4 1.7 GB

 Date: 07/20/16 03:31   in : Video  Highres Movies 

729 days 5 1.1 GB

 Date: 07/20/16 03:21   in : Video  Highres Movies 

729 days 8 2.5 GB

 Date: 07/20/16 02:17   in : Video  Highres Movies 

729 days 1

 Date: 07/20/16 02:10   in : Video  Highres Movies 

729 days 4 1.6 GB