Direct Download Irrational.Man.2015.BRRip.480p.x264.AAC-VYTO [P2PDL] torrent

Downloaded: 0
Hits: 919
Irrational.Man.2015.BRRip.480p.x264.AAC-VYTO
Genre: Drama, Mystery
http://www.imdb.com/title/tt3715320/
Format : MPEG-4)
File size : 352 MiB
Duration : 1h 34mn
Overall bit rate : 518 Kbps
Video
Format : AVC
Bit rate : 483 Kbps
Width : 720 pixels
Height : 304 pixels
Display aspect ratio : 2.35:1
Frame rate mode : Constant
Frame rate : 23.976
Bit depth : 8 bits
Stream size : 328 MiB (93%)
Writing library : x264
Audio
Format : AAC
Bit rate mode : Variable
Bit rate : 32.0 Kbps
Channel(s) : 2 channels
Channel positions : Front: L R
Sampling rate : 48.0 KHz
Frame rate : 23.438 fps
Stream size : 21.7 MiB (6%)
Language : English
Subtitle : Yes (English)
Screen Shot: (Click to view)
http://ititli.com/RI
http://ititli.com/RO
http://ititli.com/y9
http://ititli.com/yX
http://ititli.com/yq
http://ititli.com/yr
http://ititli.com/y1
http://ititli.com/yT
Encoder Notes: Looking For Early Access To Anything You Can Provide WEBDL, DVDScr, DVDR, BluRay,
Direct Audio, Music Releases and Seedboxes. If You Got anything to offer please contact us.
Support us by donating BC - 1FgwdzPsd1y25Gea8wP1qni35uGCtmkRCD
Send some love!
Find us and join us!
Related Torrents
Torrent Name   AGE FILES SIZE

 Date: 12/28/15 23:56   in : Video  Movies 

1615 days 4 1.4 GB

 Date: 12/28/15 23:45   in : Video  Movies 

1615 days 1

 Date: 12/28/15 23:43   in : Video  Movies 

1615 days 5 1.7 GB

 Date: 12/28/15 23:33   in : Video  Movies 

1615 days 1

 Date: 12/28/15 22:49   in : Video  Movies 

1615 days 1

 Date: 12/28/15 22:46   in : Video  Movies 

1615 days 16 2.8 GB

 Date: 12/28/15 22:44   in : Video  Movies 

1615 days 6 583.6 MB

 Date: 12/28/15 22:26   in : Video  Movies 

1615 days 6 761.6 MB

 Date: 12/28/15 22:08   in : Video  Movies 

1615 days 2 1.4 GB

 Date: 12/28/15 21:15   in : Video  Movies 

1615 days 1