Direct Download Jerry Lee Lewis-Last Man Standing Live (2007)[DVDRip.1080p.x264 by alE13 DTS/AC3][Eng] torrent

download torrent
Size: 5.2 GB
Downloaded: 131
Hits: 265

Produkcja: USA
Data produkcji: 06.03.2007
Re?yseria: Jim Cable
Zdi?cia: David Rudd
Producent: Mitch Ofgang
Gatunek: Koncert, Pop, Rock & Roll, Country, Dokument
Czas: 01:39:53
Opis Filmu:
GREAT ........."Fire Man" Jerry Lee Lewis returns!!!!!!!!!
Jerry Lee Lewis is an American rock 'n' roll and country music icon - a singer, songwriter, and pianist
who's been amazing his audiences with his piano pyrotechnics for half a century. Lewis has never stopped
touring, and he still delivers explosive concerts that are unpredictable, exciting, and personal. Following
the critically acclaimed release of Last Man Standing in the fall of 2006, Lewis gathered with friends and
family to perform at a series of private shows in New York and Los Angeles that were filmed for this DVD.
WSPANIA?Y ........."Fire Man" Jerry Lee Lewis wraca!!!!!!!!!
Jerry Lee Lewis ameryka?sk? ikon? Rock & Rolla - piosenkarz, autor tekstów i pianista, który niesamowicie
gra na fortepianie ju? przez pó? wieku. Lewis nigdy nie przesta? koncertowa?, wci?? dostarcza wybuchowych
koncertów, które s? nieprzewidywalne, emocjonuj?ce i takie osobiste. Lewis zebra? przyjació? i rodzin?,
wykona? szereg prywatnych koncertów w Nowym Jorku i Los Angeles, które zosta?y sfilmowane na tej p?ytce.
Obsada:
Jerry Lee Lewis - Piano
Ken Lovelace - Guitar
Nils Lofgren - Guitar
Jim Keltner - Drums
Rick Rosas - Bass
Ivan Neville - Organ/Vocals
Charlotte Gibson,Maxayn Lewis,Stacie Plunk - Background Vocals
Track Listing:
01. Opening [0:54]
02. Great Balls Of Fire [3:06]
03. Chantilly Lace [2:03]
04. Story of Jerry Lee Part 1 [2:15]
05. Green Green Grass of Home With Tom Jones [2:46]
06. End of the Road With Tom Jones [3:23]
07. Who Will the Next Fool Be With Solomon Burke [2:13]
08. Today I Started Lovin' You Again With Solomon Burke [:09]
09. Story of Jerry Lee Part 2 [4:49]
10. Crazy Arms With Norah Jones [3:20]
11. Your Cheatin' Heart With Norah Jones [3:16]
12. Hadacol Boogie With Buddy Guy [3:11]
13. Story of Jerry Lee Part 3 [3:09]
14. Don't Put No Headstone On My Grave [2:59]
15. Somewhere Over The Rainbow With Chris Isaak [4:07]
16. Cry With Chris Isaak [3:11]
17. Rockin' My Life Away With Ron Wood [4:31]
18. Story of Jerry Lee Part 4 [3:02]
19. Lewis Boogie [4:32]
20. Bumming Around With Merle Haggard [3:43]
21. What'd I Say With Ivan Neville [3:33]
22. Once More With Feeling With Kris Kristofferson [4:52]
23. CC Rider With John Fogerty [2:42]
24. Will the Circle Be Unbroken With John Fogerty & Kris Kristofferson [3:07]
25. Good Golly Miss Molly With John Fogerty [3:09]
26. Trouble In Mind With Roe Wood [2:46]
27. Jambalaya With Willie Nelson [4:54]
28. You Win Again With Don Henley [2:10]
29. Little Queenie With Kid Rock [2:22]
30. Honky Tonk Woman With Kid Rock [2:16]
31. That Lucky Old Sun With Ken Lovelace [4:45]
32. Roll Over Beethoven [2:47]
33. Whole Lotta Shakin' Going On [2:39]
Bonus:"Goodnight Irene" with Merle Haggard
Dane techniczne:
Jerry Lee Lewis-Last Man Standing Live (2007)-alE13.mkv
Format : Matroska
Format version : Version 4 / Version 2
File size : 4.83 GiB
Duration : 1h 39mn
Overall bit rate mode : Variable
Overall bit rate : 6 923 Kbps
Movie name : Jerry Lee Lewis-Last Man Standing Live (2007)-alE13
Encoded date : UTC 2016-01-07 20:05:18
Writing application : mkvmerge v8.1.0 ('Psychedelic Postcard') 64bit
Writing library : libebml v1.3.1 + libmatroska v1.4.2
DURATION : 01:39:53.184000000
NUMBER_OF_FRAMES : 187287
NUMBER_OF_BYTES : 479454720
_STATISTICS_WRITING_APP : mkvmerge v8.1.0 ('Psychedelic Postcard') 64bit
_STATISTICS_WRITING_DATE_UT : 2016-01-07 20:05:18
_STATISTICS_TAGS : BPS DURATION NUMBER_OF_FRAMES NUMBER_OF_BYTES
Video
ID : 1
Format : AVC
Format/Info : Advanced Video Codec
Format profile : [email protected]
Format settings, CABAC : Yes
Format settings, ReFrames : 3 frames
Codec ID : V_MPEG4/ISO/AVC
Duration : 1h 39mn
Bit rate mode : Variable
Bit rate : 5 390 Kbps
Maximum bit rate : 20.0 Mbps
Width : 1 920 pixels
Height : 1 080 pixels
Display aspect ratio : 16:9
Frame rate mode : Constant
Frame rate : 25.000 fps
Standard : PAL
Color space : YUV
Chroma subsampling : 4:2:0
Bit depth : 8 bits
Scan type : Progressive
Bits/(Pixel*Frame) : 0.104
Stream size : 3.76 GiB (78%)
Title : Jerry Lee Lewis-Last Man Standing Live (2007)-alE13
Default : Yes
Forced : No
Color range : Limited
Color primaries : BT.709
Transfer characteristics : BT.709
Matrix coefficients : BT.709
Audio #1
ID : 2
Format : DTS
Format/Info : Digital Theater Systems
Mode : 16
Format settings, Endianness : Big
Codec ID : A_DTS
Duration : 1h 39mn
Bit rate mode : Constant
Bit rate : 755 Kbps
Channel(s) : 6 channels
Channel positions : Front: L C R, Side: L R, LFE
Sampling rate : 48.0 KHz
Bit depth : 24 bits
Compression mode : Lossy
Stream size : 539 MiB (11%)
Title : Jerry Lee Lewis-Last Man Standing Live (2007)-alE13
Language : English
Default : Yes
Forced : No
Audio #2
ID : 3
Format : AC-3
Format/Info : Audio Coding 3
Mode extension : CM (complete main)
Format settings, Endianness : Big
Codec ID : A_AC3
Duration : 1h 39mn
Bit rate mode : Constant
Bit rate : 640 Kbps
Channel(s) : 6 channels
Channel positions : Front: L C R, Side: L R, LFE
Sampling rate : 48.0 KHz
Compression mode : Lossy
Stream size : 457 MiB (9%)
Title : Jerry Lee Lewis-Last Man Standing Live (2007)-alE13
Default : No
Forced : No
Menu
00:00:00.000 : en:(01)00:00:00:000
00:00:52.960 : en:(02)00:00:52:960
00:02:57.920 : en:(03)00:02:57:920
00:05:07.880 : en:(04)00:05:07:880
00:07:47.960 : en:(05)00:07:47:960
00:11:03.280 : en:(06)00:11:03:280
00:13:12.360 : en:(07)00:13:12:360
00:17:59.200 : en:(08)00:17:59:200
00:21:10.120 : en:(09)00:21:10:120
00:22:23.200 : en:(10)00:22:23:200
00:25:26.520 : en:(11)00:25:26:520
00:28:27.760 : en:(12)00:28:27:760
00:32:25.520 : en:(13)00:32:25:520
00:33:33.880 : en:(14)00:33:33:880
00:37:54.160 : en:(15)00:37:54:160
00:42:18.560 : en:(16)00:42:18:560
00:45:52.960 : en:(17)00:45:52:960
00:49:17.840 : en:(18)00:49:17:840
00:50:08.360 : en:(19)00:50:08:360
00:52:44.000 : en:(20)00:52:44:000
00:55:44.400 : en:(21)00:55:44:400
00:58:46.160 : en:(22)00:58:46:160
01:01:26.720 : en:(23)01:01:26:720
01:04:24.840 : en:(24)01:04:24:840
01:06:41.720 : en:(25)01:06:41:720
01:08:53.040 : en:(26)01:08:53:040
01:13:27.520 : en:(27)01:13:27:520
01:16:45.880 : en:(28)01:16:45:880
01:21:11.960 : en:(29)01:21:11:960
01:24:59.120 : en:(30)01:24:59:120
01:27:29.200 : en:(31)01:27:29:200
01:30:05.640 : en:(32)01:30:05:640
01:33:38.320 : en:(33)01:33:38:320
01:39:52.880 : en:(34)01:39:52:880
Related Torrents
Torrent Name   AGE FILES SIZE

 Date: 07/20/16 05:39   in : Video 

1353 days 6 9.9 GB

 Date: 07/20/16 05:38   in : Video 

1353 days 7 4.4 GB

 Date: 07/20/16 05:35   in : Video 

1353 days 3 7.6 GB

 Date: 07/20/16 05:34   in : Video 

1353 days 6 12 GB

 Date: 07/20/16 05:33   in : Video 

1353 days 6 6.6 GB

 Date: 07/20/16 05:30   in : Video 

1353 days 2 981 MB

 Date: 07/20/16 05:22   in : Video 

1353 days 9 6.6 GB

 Date: 07/20/16 05:01   in : Video 

1353 days 8 1.4 GB

 Date: 07/20/16 05:00   in : Video 

1353 days 7 1.1 GB

 Date: 07/20/16 04:57   in : Video 

1353 days 1 1.5 GB