Direct Download Maggie 2015 720p BRRip x264 MP4 Multisubs AAC-CC torrent

download
Size: 2 GB
Downloaded: 0
Hits: 438
http://www.imdb.com/title/tt1881002
Source: Maggie.2015.LIMITED.720p.BluRay.x264-GECKOS Thanks!
Subs ( Subrip ) : Arabic, Brazilian, Dutch, English HI, Farsi Persian, Indonesian, Italian, Malay, Polish, Portuguese, Spanish.
Subs ( Vobsubs ) : English.
Sample and Screens included.
General
Complete name : Maggie 2015 720p BRRip x264 MP4 Multisubs AAC-CC.mp4
Format : MPEG-4
Format profile : Base Media
Codec ID : isom
File size : 1.93 GiB
Duration : 1h 35mn
Overall bit rate mode : Variable
Overall bit rate : 2 901 Kbps
Encoded date : UTC 2015-06-25 12:54:30
Tagged date : UTC 2015-06-25 12:54:30
Writing application : Yamb 2.1.0.0
Video
ID : 1
Format : AVC
Format/Info : Advanced Video Codec
Format profile : [email protected]
/* */
Format settings, CABAC : Yes
Format settings, ReFrames : 5 frames
Codec ID : avc1
Codec ID/Info : Advanced Video Coding
Duration : 1h 35mn
Bit rate : 2 641 Kbps
Maximum bit rate : 35.8 Mbps
Width : 1 280 pixels
Height : 536 pixels
Display aspect ratio : 2.40:1
Frame rate mode : Variable
Frame rate : 23.976 fps
Minimum frame rate : 15.873 fps
Maximum frame rate : 24.390 fps
Color space : YUV
Chroma subsampling : 4:2:0
Bit depth : 8 bits
Scan type : Progressive
Bits/(Pixel*Frame) : 0.161
Stream size : 1.67 GiB (87%)
Writing library : x264 core 112
Encoding settings : cabac=1 / ref=5 / deblock=1:0:0 / analyse=0x3:0x113 / me=hex / subme=7 / psy=1 / psy_rd=1.00:0.00 / mixed_ref=1 / me_range=16 / chroma_me=1 / trellis=1 / 8x8dct=1 / cqm=0 / deadzone=21,11 / fast_pskip=1 / chroma_qp_offset=-2 / threads=3 / sliced_threads=0 / nr=0 / decimate=1 / interlaced=0 / constrained_intra=0 / bframes=5 / b_pyramid=2 / b_adapt=2 / b_bias=0 / direct=1 / weightb=1 / open_gop=0 / weightp=2 / keyint=240 / keyint_min=23 / scenecut=40 / intra_refresh=0 / rc_lookahead=50 / rc=abr / mbtree=1 / bitrate=2641 / ratetol=1.0 / qcomp=0.60 / qpmin=3 / qpmax=51 / qpstep=4 / ip_ratio=1.40 / aq=1:1.00
Encoded date : UTC 2015-06-25 21:02:08
Tagged date : UTC 2015-06-25 12:57:12
Color primaries : BT.709
Transfer characteristics : BT.709
Matrix coefficients : BT.709
Audio
ID : 2
Format : AAC
Format/Info : Advanced Audio Codec
Format profile : LC
Codec ID : 40
Duration : 1h 35mn
Bit rate mode : Variable
Bit rate : 384 Kbps
Maximum bit rate : 625 Kbps
Channel(s) : 6 channels
Channel positions : Front: L C R, Side: L R, LFE
Sampling rate : 48.0 KHz
Compression mode : Lossy
Delay relative to video : 83ms
Stream size : 259 MiB (13%)
Language : English
Encoded date : UTC 2015-06-25 12:56:33
Tagged date : UTC 2015-06-25 12:57:12
Enjoy

Related Torrents
Torrent Name   AGE FILES SIZE

 Date: 12/29/15 00:03   in : Video  HD Movies 

753 days 1

 Date: 12/28/15 23:35   in : Video  HD Movies 

753 days 13 2.3 GB

 Date: 12/28/15 22:57   in : Video  HD Movies 

753 days 10 2.7 GB

 Date: 12/28/15 22:51   in : Video  HD Movies 

753 days 1

 Date: 12/28/15 22:30   in : Video  HD Movies 

753 days 1 3.9 GB

 Date: 12/28/15 22:08   in : Video  HD Movies 

753 days 1

 Date: 12/28/15 21:01   in : Video  HD Movies 

753 days 1

 Date: 12/28/15 20:08   in : Video  HD Movies 

753 days 1

 Date: 12/28/15 19:59   in : Video  HD Movies 

753 days 1

 Date: 12/28/15 19:47   in : Video  HD Movies 

753 days 1 1.2 GB