Direct Download Major Lazer A DJ Snake - Lean On (feat. MO) (Official Music Vide torrent

Downloaded: 0
Hits: 112987
Calvin Harris & Disciples - How Deep Is Your Love
Source: VEVO/ Vevo TV
Source File Info:
General
Format : MPEG-4
Format profile : Base Media
Codec ID : isom
File size : 70.0 MiB
Duration : 4mn 20s
Overall bit rate : 2 252 Kbps
Writing application : Lavf54.29.104
Video
ID : 1
Format : AVC
Format/Info : Advanced Video Codec
Format profile : [email protected]
/* */
Format settings, CABAC : Yes
Format settings, ReFrames : 3 frames
Codec ID : avc1
Codec ID/Info : Advanced Video Coding
Duration : 4mn 20s
Bit rate : 2 121 Kbps
Width : 1 920 pixels
Height : 1 080 pixels
Display aspect ratio : 16:9
Frame rate mode : Variable
Frame rate : 23.976 fps
Minimum frame rate : 23.974 fps
Maximum frame rate : 23.981 fps
Color space : YUV
Chroma subsampling : 4:2:0
Bit depth : 8 bits
Scan type : Progressive
Bits/(Pixel*Frame) : 0.043
Stream size : 65.9 MiB (94%)
Audio
ID : 2
Format : AAC
Format/Info : Advanced Audio Codec
Format profile : LC
Codec ID : 40
Duration : 4mn 20s
Bit rate mode : Constant
Bit rate : 126 Kbps
Channel(s) : 2 channels
Channel positions : Front: L R
Sampling rate : 44.1 KHz
Compression mode : Lossy
Stream size : 3.90 MiB (6%)
Encoder: truHD HEVC
Major Lazer & DJ Snake - Lean On (feat. MØ) (Official Music Video) truHD HEVC
Source: VEVO/ Vevo TV
Source File Info:
General
Format : MPEG-4
Format profile : Base Media
Codec ID : isom
File size : 81.6 MiB
Duration : 2mn 58s
Overall bit rate : 3 826 Kbps
Writing application : Lavf54.29.104
Video
ID : 1
Format : AVC
Format/Info : Advanced Video Codec
Format profile : [email protected]
/* */
Format settings, CABAC : Yes
Format settings, ReFrames : 3 frames
Codec ID : avc1
Codec ID/Info : Advanced Video Coding
Duration : 2mn 58s
Bit rate : 3 695 Kbps
Width : 1 920 pixels
Height : 1 080 pixels
Display aspect ratio : 16:9
Frame rate mode : Constant
Frame rate : 25.000 fps
Color space : YUV
Chroma subsampling : 4:2:0
Bit depth : 8 bits
Scan type : Progressive
Bits/(Pixel*Frame) : 0.071
Stream size : 78.8 MiB (97%)
Audio
ID : 2
Format : AAC
Format/Info : Advanced Audio Codec
Format profile : LC
Codec ID : 40
Duration : 2mn 58s
Bit rate mode : Constant
Bit rate : 126 Kbps
Channel(s) : 2 channels
Channel positions : Front: L R
Sampling rate : 44.1 KHz
Compression mode : Lossy
Stream size : 2.68 MiB (3%)
truHD HEVC Encodes
Encoded File Info
General
Format : MPEG-4
Format profile : Base Media
Codec ID : isom
File size : 45.8 MiB
Duration : 2mn 58s
Overall bit rate : 2 148 Kbps
Writing application : Lavf55.33.100
Video
ID : 2
Format : HEVC
Format/Info : High Efficiency Video Coding
Codec ID : hvc1
Codec ID/Info : High Efficiency Video Coding
Duration : 2mn 58s
Duration_FirstFrame : -23ms
Bit rate : 2 016 Kbps
Width : 1 920 pixels
Height : 1 080 pixels
Display aspect ratio : 16:9
Frame rate mode : Constant
Frame rate : 25.000 fps
Bits/(Pixel*Frame) : 0.039
Stream size : 43.0 MiB (94%)
Audio
ID : 1
Format : AAC
Format/Info : Advanced Audio Codec
Format profile : LC
Codec ID : 40
Duration : 2mn 58s
Bit rate mode : Constant
Bit rate : 128 Kbps
Channel(s) : 2 channels
Channel positions : Front: L R
Sampling rate : 44.1 KHz
Compression mode : Lossy
Stream size : 2.73 MiB (6%)
ScreenShots:
https://yuq.me/users/36/459/E8ksprzSwe.png
https://yuq.me/users/36/459/xhSdqbYwr9.png
https://yuq.me/users/36/459/LbPIn1JCu2.png
Share Your Thoughts And Requests @
King Regards
Team truHD HEVC Encodes
Related Torrents
Torrent Name   AGE FILES SIZE

 Date: 12/28/15 23:18   in : Video  Music videos 

845 days 5 584.7 MB

 Date: 12/28/15 20:17   in : Video  Music videos 

845 days 1 1.3 GB

 Date: 12/28/15 18:21   in : Video  Music videos 

845 days 1 4.9 GB

 Date: 12/28/15 17:53   in : Video  Music videos 

845 days 1 50.7 MB

 Date: 12/28/15 15:58   in : Video  Music videos 

845 days 15 6.2 GB

 Date: 12/27/15 22:24   in : Video  Music videos 

846 days 1

 Date: 12/27/15 21:08   in : Video  Music videos 

846 days 21 1.4 GB

 Date: 12/27/15 20:19   in : Video  Music videos 

846 days 1 473.8 MB

 Date: 12/27/15 00:21   in : Video  Music videos 

847 days 1

 Date: 12/26/15 23:25   in : Video  Music videos 

847 days 1 127.3 MB