Direct Download Montauk.Chronicles.2015.BRRip.x264-MenaceIISociety torrent

Downloaded: 0
Hits: 276
https://www.torrenting.com
Sign up is OPEN - for time being. Come and have fun
.......................................................................................................................[center][img]http://s30.postimg.org/nesv5xd0x/Untitled_1.jpg[/img]
Montauk.Chronicles.2015.BRRip.x264-MenaceIISociety
http://www.imdb.com/title/tt1661066/
Source: 720p.BluRay.x264-SADPANDA [THANKS]
NOTE: increased some gamma_y, gamma_u and some coef and gain settings :)
General
Complete name : Montauk.Chronicles.2015.BRRip.x264-MenaceIISociety.mp4
Format : MPEG-4
Format profile : Base Media
Codec ID : isom
File size : 1.12 GiB
Duration : 2h 4mn
Overall bit rate mode : Variable
Overall bit rate : 1 288 Kbps
Encoded date : UTC 2015-08-03 00:33:40
Tagged date : UTC 2015-08-03 00:33:40
Video
ID : 1
Format : AVC
Format/Info : Advanced Video Codec
Format profile : [email protected]
/* */
Format settings, CABAC : Yes
Format settings, ReFrames : 3 frames
Codec ID : avc1
Codec ID/Info : Advanced Video Coding
Duration : 2h 4mn
Bit rate mode : Variable
Bit rate : 1 131 Kbps
Maximum bit rate : 40.0 Mbps
Width : 720 pixels
Height : 400 pixels
Display aspect ratio : 16:9
Frame rate mode : Constant
Frame rate : 23.976 fps
Color space : YUV
Chroma subsampling : 4:2:0
Bit depth : 8 bits
Scan type : Progressive
Bits/(Pixel*Frame) : 0.164
Stream size : 1 010 MiB (88%)
Writing library : x264 core 148 r2579 73ae2d1
Audio
ID : 2
Format : AAC
Format/Info : Advanced Audio Codec
Format profile : LC
Codec ID : 40
Duration : 2h 4mn
Bit rate mode : Variable
Bit rate : 153 Kbps
Maximum bit rate : 197 Kbps
Channel(s) : 6 channels
Channel positions : Front: L C R, Side: L R, LFE
Sampling rate : 48.0 KHz
Compression mode : Lossy
Stream size : 137 MiB (12%)
Language : English
Encoded date : UTC 2015-08-02 23:10:27
Tagged date : UTC 2015-08-03 00:34:25
[img]http://s7.postimg.org/d1qk7gg6z/vlcsnap_2015_08_03_02h36m56s176.jpg[/img]
[img]http://s7.postimg.org/6a054lr7f/vlcsnap_2015_08_03_02h37m47s886.jpg[/img]
[img]http://s7.postimg.org/62h3lu5mj/vlcsnap_2015_08_03_02h38m55s071.jpg[/img]
[img]http://s7.postimg.org/wc264mrjv/vlcsnap_2015_08_03_02h39m24s968.jpg[/img]
[img]http://s7.postimg.org/8tvryperf/vlcsnap_2015_08_03_02h39m44s676.jpg[/img]
[img]http://s7.postimg.org/gt4q7ij97/vlcsnap_2015_08_03_02h41m59s477.jpg[/img]
[img]http://s7.postimg.org/lqiasml8b/vlcsnap_2015_08_03_02h43m12s044.jpg[/img]
[img]http://s7.postimg.org/azuo6y7ln/vlcsnap_2015_08_03_02h46m49s959.jpg[/img]
[img]http://s17.postimg.org/r1iiyw8yn/Untitled_1.png[/img][/center]
Related Torrents
Torrent Name   AGE FILES SIZE

 Date: 12/28/15 23:56   in : Video  Movies 

845 days 4 1.4 GB

 Date: 12/28/15 23:45   in : Video  Movies 

845 days 1

 Date: 12/28/15 23:43   in : Video  Movies 

845 days 5 1.7 GB

 Date: 12/28/15 23:33   in : Video  Movies 

845 days 1

 Date: 12/28/15 22:49   in : Video  Movies 

845 days 1

 Date: 12/28/15 22:46   in : Video  Movies 

845 days 16 2.8 GB

 Date: 12/28/15 22:44   in : Video  Movies 

845 days 6 583.6 MB

 Date: 12/28/15 22:26   in : Video  Movies 

845 days 6 761.6 MB

 Date: 12/28/15 22:08   in : Video  Movies 

845 days 2 1.4 GB

 Date: 12/28/15 21:32   in : Video  Movies 

845 days 1