Direct Download Mr Robot S01E01 720p mHD HDTV AAC EN-NL-SUB x264-[MULVAcoded] torrent

download
Size: 296 MB
Downloaded: 0
Hits: 333
Mr Robot S01E01 720p mHD HDTV AAC EN-NL-SUB x264-[MULVAcoded]
Elliot, a cyber-security engineer by day and vigilante hacker by night, is recruited by a mysterious underground group to destroy the firm he's paid to protect. Elliot must decide how far he'll go to expose the forces he believes are running (and ruining) the world.
Screens @
https://yuq.me/users/50/321/mPZge7IHVz.jpg
https://yuq.me/users/50/321/PmE03e1iHJ.jpg
Video
ID : 1
Format : AVC
Format/Info : Advanced Video Codec
Format profile : [email protected]
/* */
Format settings, CABAC : Yes
Format settings, ReFrames : 16 frames
Codec ID : avc1
Codec ID/Info : Advanced Video Coding
Duration : 1h 4mn
Bit rate : 537 Kbps
Width : 1 280 pixels
Height : 720 pixels
Display aspect ratio : 16:9
Frame rate mode : Variable
Frame rate : 23.976 fps
Minimum frame rate : 23.968 fps
Maximum frame rate : 23.981 fps
Color space : YUV
Chroma subsampling : 4:2:0
Bit depth : 8 bits
Scan type : Progressive
Bits/(Pixel*Frame) : 0.024
Stream size : 249 MiB (84%)
Writing library : x264 core 130 r2273 b3065e6
Encoding settings : cabac=1 / ref=16 / deblock=1:0:0 / analyse=0x3:0x113 / me=umh / subme=8 / psy=1 / psy_rd=1.00:0.00 / mixed_ref=1 / me_range=16 / chroma_me=1 / trellis=1 / 8x8dct=1 / cqm=0 / deadzone=21,11 / fast_pskip=1 / chroma_qp_offset=-2 / threads=6 / lookahead_threads=3 / sliced_threads=0 / nr=0 / decimate=1 / interlaced=0 / bluray_compat=0 / constrained_intra=0 / bframes=16 / b_pyramid=2 / b_adapt=2 / b_bias=0 / direct=3 / weightb=1 / open_gop=0 / weightp=2 / keyint=240 / keyint_min=24 / scenecut=40 / intra_refresh=0 / rc_lookahead=50 / rc=crf / mbtree=1 / crf=28.0 / qcomp=0.60 / qpmin=0 / qpmax=69 / qpstep=4 / ip_ratio=1.40 / aq=1:1.00
Encoded date : UTC 2015-06-29 11:22:58
Tagged date : UTC 2015-06-29 16:26:56
Color primaries : BT.709
Transfer characteristics : BT.709
Matrix coefficients : BT.709
Color range : Limited
Audio
ID : 2
Format : AAC
Format/Info : Advanced Audio Codec
Format profile : LC
Codec ID : 40
Duration : 1h 4mn
Bit rate mode : Variable
Bit rate : 96.0 Kbps
Maximum bit rate : 126 Kbps
Channel(s) : 2 channels
Channel positions : Front: L R
Sampling rate : 48.0 KHz
Compression mode : Lossy
Stream size : 44.5 MiB (15%)
Title : Stereo
Encoded date : UTC 2015-06-29 11:22:58
Tagged date : UTC 2015-06-29 16:26:35
Text #1
ID : 3
Format : Timed Text
Muxing mode : sbtl
Codec ID : tx3g
Duration : 1h 4mn
Bit rate mode : Variable
Bit rate : 77 bps
Stream size : 36.4 KiB (0%)
Language : English
Encoded date : UTC 2015-06-29 11:22:58
Tagged date : UTC 2015-06-29 16:26:35
Text #2
ID : 4
Format : Timed Text
Muxing mode : sbtl
Codec ID : tx3g
Duration : 1h 4mn
Bit rate mode : Variable
Bit rate : 69 bps
Stream size : 32.7 KiB (0%)
Language : Dutch
Encoded date : UTC 2015-06-29 11:22:58
Tagged date : UTC 2015-06-29 16:26:35

Related Torrents
Torrent Name   AGE FILES SIZE

 Date: 12/29/15 00:13   in : Video  TV shows 

965 days 12 105.3 MB

 Date: 12/29/15 00:12   in : Video  TV shows 

965 days 12 207.2 MB

 Date: 12/29/15 00:07   in : Video  TV shows 

965 days 4 83.6 MB

 Date: 12/29/15 00:05   in : Video  TV shows 

965 days 1

 Date: 12/29/15 00:04   in : Video  TV shows 

965 days 12 277.3 MB

 Date: 12/29/15 00:00   in : Video  TV shows 

965 days 1

 Date: 12/28/15 23:45   in : Video  TV shows 

965 days 12 164.2 MB

 Date: 12/28/15 23:42   in : Video  TV shows 

965 days 4 264.7 MB

 Date: 12/28/15 23:40   in : Video  TV shows 

965 days 1

 Date: 12/28/15 23:37   in : Video  TV shows 

965 days 12 362.1 MB