Direct Download No.1 Mr Perfect (2015) - Untouched WEBHD 720p x264 AVC 2CH - [ M torrent

Downloaded: 0
Hits: 407
[center][img]http://i.imgur.com/ZbGI2j7.png[/img]
[img]http://i.imgur.com/SsyMZdq.jpg[/img]
[size=6][color=blue][b]No.1 Mr Perfect (2015) - Untouched WEBHD 720p x264 AVC 2CH - [ M2Tv ][/b][/color][/size]
[img]http://i.imgur.com/tWjvQAx.png[/img]
[code][* Year ].............: [ (2015)
[* IMDB Link ]........: [ Not Found
[* Gener ]............: [ Romance, Action
[* Cast ].............: [ Prabhas | Kajal Agarwal | Taapsee
[* Source ]...........: [ -* M2Tv (Thanks) *-
[* Ripper ]...........: [ -* TuHiN *-
[* Language ].........: [ Hindi
Format : MPEG-4
Format profile : Base Media / Version 2
Codec ID : mp42
File size : 2.01 GiB
Duration : 2h 22mn
Overall bit rate mode : Variable
Overall bit rate : 2 014 Kbps
[ * Video ]
Format : AVC
Format/Info : Advanced Video Codec
Format profile : [email protected]
/* */
Format settings, CABAC : Yes
Format settings, ReFrames : 1 frame
Codec ID : avc1
Codec ID/Info : Advanced Video Coding
Duration : 2h 22mn
Bit rate : 1 820 Kbps
Maximum bit rate : 6 157 Kbps
Width : 1 280 pixels
Height : 720 pixels
Display aspect ratio : 16:9
Frame rate mode : Constant
Frame rate : 25.000 fps
Color space : YUV
Chroma subsampling : 4:2:0
Bit depth : 8 bits
Scan type : Progressive
Bits/(Pixel*Frame) : 0.079
Stream size : 1.81 GiB (90%)
[ * Audio ]
Format : AAC
Format/Info : Advanced Audio Codec
Format profile : LC
Codec ID : 40
Duration : 2h 22mn
Bit rate mode : Variable
Bit rate : 192 Kbps
Maximum bit rate : 201 Kbps
Channel(s) : 2 channels
Channel positions : Front: L R
Sampling rate : 44.1 KHz
Compression mode : Lossy
Stream size : 196 MiB (10%)
Note: "JPEG" less quality, don't judge by this.[/code]
[li]
[img]http://t1.someimage.com/wHwYEC7.jpg[/img]
[img]http://t1.someimage.com/A9qI5bZ.jpg[/img]
[img]http://t1.someimage.com/ZrniQKN.jpg[/img]
[img]http://t1.someimage.com/Mh2BgL7.jpg[/img]
[size=5][u][i]
[b]Note :[/b]
[/i][/u][/size]
[color=blue][size=6][i][b]Wherever you share our stuffs, Always Give Proper Credits To "Team M2Tv", Enjoy.[/b][/i][/size][/color][/li]
[/center]
Related Torrents
Torrent Name   AGE FILES SIZE

 Date: 12/29/15 00:03   in : Video  HD Movies 

929 days 1

 Date: 12/28/15 23:35   in : Video  HD Movies 

929 days 13 2.3 GB

 Date: 12/28/15 22:57   in : Video  HD Movies 

929 days 10 2.7 GB

 Date: 12/28/15 22:51   in : Video  HD Movies 

929 days 1

 Date: 12/28/15 22:30   in : Video  HD Movies 

929 days 1 3.9 GB

 Date: 12/28/15 22:08   in : Video  HD Movies 

929 days 1

 Date: 12/28/15 21:01   in : Video  HD Movies 

929 days 1

 Date: 12/28/15 20:08   in : Video  HD Movies 

929 days 1

 Date: 12/28/15 19:59   in : Video  HD Movies 

929 days 1

 Date: 12/28/15 19:47   in : Video  HD Movies 

929 days 1 1.2 GB