Direct Download Orphan Black S04E03 1080p 10bit WEBRip 6CH x265 HEVC-Power torrent

download torrent
Size: 359.7 MB
Downloaded: 10316
Hits: 39512
Video ID : 1 Format : HEVC Format/Info : High Efficiency Video Coding Format profile : Main [email protected]@Main Codec ID : V_MPEGH/ISO/HEVC Duration : 42mn 39s Bit rate : 986 Kbps Width : 1 920 pixels Height : 1 080 pixels Display aspect ratio : 16:9 Frame rate mode : Constant Frame rate : 23.976 (24000/1001) fps Color space : YUV Chroma subsampling : 4:2:0 Bit depth : 10 bits Bits/(Pixel*Frame) : 0.020 Stream size : 301 MiB (84%) Writing library : x265 1.9+140-34a3d35c5f97:[Windows][GCC 5.3.0][64 bit] 10bit Encoding settings : wpp / ctu=64 / min-cu-size=8 / max-tu-size=32 / tu-intra-depth=1 / tu-inter-depth=1 / me=1 / subme=2 / merange=57 / no-rect / no-amp / max-merge=2 / temporal-mvp / early-skip / rdpenalty=0 / no-tskip / no-tskip-fast / strong-intra-smoothing / no-lossless / no-cu-lossless / no-constrained-intra / fast-intra / open-gop / no-temporal-layers / interlace=0 / keyint=250 / min-keyint=23 / scenecut=40 / rc-lookahead=15 / lookahead-slices=6 / bframes=4 / bframe-bias=0 / b-adapt=0 / ref=2 / limit-refs=3 / no-limit-modes / weightp / no-weightb / aq-mode=1 / qg-size=32 / aq-strength=1.00 / cbqpoffs=0 / crqpoffs=0 / rd=2 / psy-rd=2.00 / rdoq-level=0 / psy-rdoq=0.00 / no-rd-refine / signhide / deblock=0:0 / sao / no-sao-non-deblock / b-pyramid / cutree / no-intra-refresh / rc=2 / pass / bitrate=986 / qcomp=0.60 / qpmin=0 / qpmax=51 / qpstep=4 / cplxblur=20.0 / qblur=0.5 / ipratio=1.40 / pbratio=1.30 Default : Yes Forced : No Audio ID : 2 Format : AAC Format/Info : Advanced Audio Codec Format profile : HE-AAC / LC Codec ID : A_AAC Duration : 42mn 48s Bit rate : 192 Kbps Channel(s) : 6 channels Channel positions : Front: L C R, Side: L R, LFE Sampling rate : 48.0 KHz / 24.0 KHz Frame rate : 23.438 fps (1024 spf) Compression mode : Lossy Delay relative to video : 31ms Stream size : 58.2 MiB (16%) Language : English Default : No Forced : No Text ID : 3 Format : UTF-8 Codec ID : S_TEXT/UTF8 Codec ID/Info : UTF-8 Plain Text Duration : 41mn 30s Bit rate : 73 bps Count of elements : 647 Stream size : 22.3 KiB (0%) Language : English Default : No Forced : No
Related Torrents
Torrent Name   AGE FILES SIZE

 Date: 07/20/16 07:30   in : Video  Series & TV 

877 days 20 4.2 GB

 Date: 07/20/16 07:27   in : Video  Series & TV 

877 days 1 308 MB

 Date: 07/20/16 07:26   in : Video  Series & TV 

877 days 1

 Date: 07/20/16 07:24   in : Video  Series & TV 

877 days 1

 Date: 07/20/16 07:19   in : Video  Series & TV 

877 days 4 2.4 GB

 Date: 07/20/16 07:19   in : Video  Series & TV 

877 days 4 307.9 MB

 Date: 07/20/16 07:19   in : Video  Series & TV 

877 days 4 840.5 MB

 Date: 07/20/16 07:17   in : Video  Series & TV 

877 days 2 993.6 MB

 Date: 07/20/16 07:14   in : Video  Series & TV 

877 days 4 478.6 MB

 Date: 07/20/16 07:13   in : Video  Series & TV 

877 days 4 520.7 MB