Direct Download Partners In Crime The Moors Murderers S01E01 WEB h264-spamTV[rartv] torrent

download torrent
Size: 617.9 MB
Downloaded: 96
Hits: 171

https://rarbg.to
Partners.In.Crime.The.Moors.Murderers.S01E01.WEB.h264-spamTV[rartv]
Screens :

Mediainfo :
Video
ID : 1
Format : AVC
Format/Info : Advanced Video Codec
Format profile : [email protected]
Format settings, CABAC : Yes
Format settings, ReFrames : 3 frames
Codec ID : V_MPEG4/ISO/AVC
Duration : 44mn 47s
Bit rate : 1 799 Kbps
Width : 720 pixels
Height : 396 pixels
Display aspect ratio : 16:9
Frame rate mode : Constant
Frame rate : 25.000 fps
Color space : YUV
Chroma subsampling : 4:2:0
Bit depth : 8 bits
Scan type : Progressive
Bits/(Pixel*Frame) : 0.252
Stream size : 576 MiB (93%)
Writing library : Zencoder Video Encoding System
Default : Yes
Forced : No
Audio
ID : 2
Format : AAC
Format/Info : Advanced Audio Codec
Format profile : LC
Codec ID : A_AAC
Duration : 44mn 47s
Bit rate : 128 Kbps
Channel(s) : 2 channels
Channel positions : Front: L R
Sampling rate : 48.0 KHz
Frame rate : 46.875 fps (1024 spf)
Compression mode : Lossy
Delay relative to video : -54ms
Stream size : 41.0 MiB (7%)
Default : Yes
Forced : No
Related Torrents
Torrent Name   AGE FILES SIZE

 Date: 07/20/16 07:30   in : Video  Series & TV 

703 days 20 4.2 GB

 Date: 07/20/16 07:27   in : Video  Series & TV 

703 days 1 308 MB

 Date: 07/20/16 07:26   in : Video  Series & TV 

703 days 1

 Date: 07/20/16 07:24   in : Video  Series & TV 

703 days 1

 Date: 07/20/16 07:19   in : Video  Series & TV 

703 days 4 2.4 GB

 Date: 07/20/16 07:19   in : Video  Series & TV 

703 days 4 307.9 MB

 Date: 07/20/16 07:19   in : Video  Series & TV 

703 days 4 840.5 MB

 Date: 07/20/16 07:17   in : Video  Series & TV 

703 days 2 993.6 MB

 Date: 07/20/16 07:14   in : Video  Series & TV 

703 days 4 478.6 MB

 Date: 07/20/16 07:13   in : Video  Series & TV 

703 days 4 520.7 MB