Direct Download Pashanam Shaji Speaking - 2015 - Malayalam latest comedy.mp4 torrent

download torrent
Downloaded: 22
Hits: 162
Pashanam Shaji Speaking - 2015 - Malayalam latest comedy.mp4
Media Inf
Pashanam Shaji Speaking - 2015 - Malayalam latest comedy.mp4
Format : MPEG-4
Format profile : Base Media
Codec ID : isom
File size : 1.45 GiB
Duration : 1h 26mn
Overall bit rate : 2 394 Kbps
Writing application : Lavf54.63.104
Video
ID : 1
Format : AVC
Format/Info : Advanced Video Codec
Format profile : [email protected]
Format settings, CABAC : Yes
Format settings, ReFrames : 3 frames
Codec ID : avc1
Codec ID/Info : Advanced Video Coding
Duration : 1h 26mn
Bit rate : 2 262 Kbps
Width : 1 920 pixels
Height : 1 080 pixels
Display aspect ratio : 16:9
Frame rate mode : Constant
Frame rate : 25.000 fps
Color space : YUV
Chroma subsampling : 4:2:0
Bit depth : 8 bits
Scan type : Progressive
Bits/(Pixel*Frame) : 0.044
Stream size : 1.37 GiB (94%)
Audio
ID : 2
Format : AAC
Format/Info : Advanced Audio Codec
Format profile : LC
Codec ID : 40
Duration : 1h 26mn
Bit rate mode : Constant
Bit rate : 126 Kbps
Channel(s) : 2 channels
Channel positions : Front: L R
Sampling rate : 44.1 KHz
Compression mode : Lossy
Stream size : 77.8 MiB (5%)
Screenshot
Enjoy and keep seeding
Related Torrents
Torrent Name   AGE FILES SIZE

 Date: 07/20/16 04:29   in : Video  Asian Movies 

852 days 5 702.8 MB

 Date: 07/20/16 02:58   in : Video  Asian Movies 

852 days 1 3.3 GB

 Date: 07/19/16 23:47   in : Video  Asian Movies 

853 days 5 705.2 MB

 Date: 07/19/16 23:47   in : Video  Asian Movies 

853 days 5 419 MB

 Date: 07/19/16 22:46   in : Video  Asian Movies 

853 days 1 2.6 GB

 Date: 07/19/16 22:40   in : Video  Asian Movies 

853 days 1 2.6 GB

 Date: 07/19/16 21:56   in : Video  Asian Movies 

853 days 11 3 GB

 Date: 07/19/16 21:51   in : Video  Asian Movies 

853 days 12 4.1 GB

 Date: 07/19/16 21:30   in : Video  Asian Movies 

853 days 13 4.1 GB

 Date: 07/19/16 19:16   in : Video  Asian Movies 

853 days 1 701.1 MB