Direct Download Planet Ocean (2012).BRrip.XviD - Italian English.Ac3.5.1.MultiSu torrent

Downloaded: 0
Hits: 267
Planet Ocean (2012).BRrip.XviD - Italian English.Ac3.5.1.MultiSub.MIRCrew
[center]
[color=red][b][img]http://s19.postimg.org/w9ws99nmb/banner_mircrew_original_2.png[/img]
[u]NO FOUND ONLY ORIGINAL RELEASE[/u]
Planet Ocean (2012)
[url=http://postimg.org/image/qpol3ezgr/][img]http://s1.postimg.org/qpol3ezgr/image.jpg[/img][/url]
[URL=http://www.imdb.com/title/tt2240784/][IMG]http://www.userlogos.org/files/logos/Sucka/imdb_new.png[/IMG][/URL]
[img]http://s19.postimg.org/vz5tzn42b/1_scheda.png[/img]
Directors: Yann Arthus-Bertrand, Michael Pitiot
Writers: Lucy Allwood (translator), Michael Pitiot
Stars: Josh Duhamel
[img]http://s19.postimg.org/okgi79i6r/1_trama.png[/img]
Fotoreporter francese convertito all'ambientalismo, Yann Arthus-Bertrand negli anni si è distinto per l' impatto grafico dei suoi lavori e dei suoi lungometraggi, con installazioni in tutto il mondo che parlano di un pianeta in crescita costante e incontrollata – tutto disponibile in Rete. La sua ultima opera, Planet Ocean, è un documentario di un'ora e mezza realizzato in collaborazione con il regista Michael Pitiot e la partnership di Omega, e atteso proprio al Rio+20 dove è arrivato puntuale a una première gremita di ospiti.
[img]http://s19.postimg.org/fzn6g380j/1_story.png[/img]
Dive into our planet's greatest mysteries with a team of international underwater cinematographers as they explore the breathtaking bond between humanity and the ocean.........
[url=http://extraimago.com/image/OWX][img]http://extraimago.com/images/2015/08/03/vlcsnap-2015-08-03-15h39m54s10.th.png[/img][/url] [url=http://extraimago.com/image/OWg][img]http://extraimago.com/images/2015/08/03/vlcsnap-2015-08-03-15h40m00s71.th.png[/img][/url] [url=http://extraimago.com/image/OW5][img]http://extraimago.com/images/2015/08/03/vlcsnap-2015-08-03-15h40m09s153.th.png[/img][/url]
[IMG]http://img153.imageshack.us/img153/3158/restateinseedblood.gif[/img]
[img]http://imgur.com/lvhU6.gif[/img]
[img]http://s19.postimg.org/a2jaz9qvn/1_dati.png[/img]
[spoiler]
General
Complete name : Planet Ocean (2012).ita.eng.Multisub.MIRCrewPlanet Ocean (2012).ita.eng.Multisub.MIRCrew.avi
Format : AVI
Format/Info : Audio Video Interleave
File size : 1.56 GiB
Duration : 1h 32mn
Overall bit rate : 2 410 Kbps
Movie name : MIRCrew by robbyrs
Writing application : VirtualDubMod 1.5.10.2 (build 2540/release)
Writing library : VirtualDubMod build 2540/release
Video
ID : 0
Format : MPEG-4 Visual
Format profile : [email protected]
Format settings, BVOP : No
Format settings, QPel : No
Format settings, GMC : No warppoints
Format settings, Matrix : Default (H.263)
Codec ID : XVID
Codec ID/Hint : XviD
Duration : 1h 32mn
Bit rate : 1 500 Kbps
Width : 720 pixels
Height : 404 pixels
Display aspect ratio : 16:9
Frame rate : 23.976 fps
Color space : YUV
Chroma subsampling : 4:2:0
Bit depth : 8 bits
Scan type : Progressive
Compression mode : Lossy
Bits/(Pixel*Frame) : 0.215
Stream size : 994 MiB (62%)
Writing library : XviD 64
Audio #1
ID : 1
Format : AC-3
Format/Info : Audio Coding 3
Mode extension : CM (complete main)
Codec ID : 2000
Duration : 1h 32mn
Bit rate mode : Constant
Bit rate : 448 Kbps
Channel(s) : 6 channels
Channel positions : Front: L C R, Side: L R, LFE
Sampling rate : 48.0 KHz
Bit depth : 16 bits
Compression mode : Lossy
Stream size : 297 MiB (19%)
Alignment : Split accross interleaves
Interleave, duration : 42 ms (1.00 video frame)
Interleave, preload duration : 500 ms
Audio #2
ID : 2
Format : AC-3
Format/Info : Audio Coding 3
Mode extension : CM (complete main)
Codec ID : 2000
Duration : 1h 32mn
Bit rate mode : Constant
Bit rate : 448 Kbps
Channel(s) : 6 channels
Channel positions : Front: L C R, Side: L R, LFE
Sampling rate : 48.0 KHz
Bit depth : 16 bits
Compression mode : Lossy
Stream size : 297 MiB (19%)
Alignment : Split accross interleaves
Interleave, duration : 42 ms (1.00 video frame)
Interleave, preload duration : 500 ms
[/spoiler]
[/color][/b][/center]
Related Torrents
Torrent Name   AGE FILES SIZE

 Date: 12/28/15 23:56   in : Video  Movies 

752 days 4 1.4 GB

 Date: 12/28/15 23:45   in : Video  Movies 

752 days 1

 Date: 12/28/15 23:43   in : Video  Movies 

752 days 5 1.7 GB

 Date: 12/28/15 23:33   in : Video  Movies 

752 days 1

 Date: 12/28/15 22:49   in : Video  Movies 

752 days 1

 Date: 12/28/15 22:46   in : Video  Movies 

752 days 16 2.8 GB

 Date: 12/28/15 22:44   in : Video  Movies 

752 days 6 583.6 MB

 Date: 12/28/15 22:26   in : Video  Movies 

752 days 6 761.6 MB

 Date: 12/28/15 22:08   in : Video  Movies 

752 days 2 1.4 GB

 Date: 12/28/15 21:32   in : Video  Movies 

752 days 1