Direct Download Prometheus 2012.1080p.BluRay.5.1..x264 . NVEE torrent

download
Size: 2.7 GB
Downloaded: 0
Hits: 994
FULL_INFOs
99.99% >>> SYNCED GUARANTEED
"Totally scrutinized / analyzed to be a verified torrent."
___________________________________________
Source : Blu-Ray ~ 1080p
My Media Player of Choice "VLC Media Player via HDMI"
Spoken Language: English
Audio : 6 ~ Channels Only
Only @
Don't delete torrent link,... Please seed . NVEE
_____________________________________
http://www.imdb.com/title/tt1446714/
Subs Info : x9 ~ Multisubs.
http://www.subtitleseeker.com/1446714/Prometheus/Subtitles/
1639 Subtitles In 49 Languages Use Link Provided
http://www.subtitleseeker.com/1446714/Prometheus/Subtitles/
1639 Subtitles In 49 Languages Only @ SubtitleSeeker
http://www.subtitleseeker.com/1446714/Prometheus/Subtitles/
& or @
http://subscene.com/subtitles/prometheus-2012
All .srt subs can be turned On/Off
http://www.imdb.com/title/tt1446714/
General Metadata
Complete name : Prometheus 2012.1080p.BluRay.5.1.x264 . NVEE.mp4
Format : MPEG-4
Format profile : Base Media
Codec ID : isom
File size : 2.75 GiB
Duration : 2h 3mn
Overall bit rate : 3 179 Kbps
Encoded date : UTC 2013-11-11 22:36:12
Tagged date : UTC 2013-11-11 22:36:12
Video
ID : 1
Format : AVC
Format/Info : Advanced Video Codec
Format profile : [email protected]
/* */
Format settings, CABAC : Yes
Format settings, ReFrames : 3 frames
Codec ID : avc1
Codec ID/Info : Advanced Video Coding
Duration : 2h 3mn
Bit rate : 2 539 Kbps
Maximum bit rate : 37.6 Mbps
Width : 1 920 pixels
Height : 800 pixels
Display aspect ratio : 2.40:1
Frame rate mode : Constant
Frame rate : 23.976 fps
Color space : YUV
Chroma subsampling : 4:2:0
Bit depth : 8 bits
Scan type : Progressive
Bits/(Pixel*Frame) : 0.069
Stream size : 2.19 GiB (80%)
Writing library : x264 core 133 r2334 a3ac64b
Encoded date : UTC 2013-11-11 17:21:02
Tagged date : UTC 2013-11-11 22:39:32
Audio
ID : 2
Format : AC-3
Format/Info : Audio Coding 3
Mode extension : CM (complete main)
Format settings, Endianness : Big
Codec ID : ac-3
Duration : 2h 3mn
Bit rate mode : Constant
Bit rate : 640 Kbps
Channel(s) : 6 channels
Channel positions : Front: L C R, Side: L R, LFE
Sampling rate : 48.0 KHz
Bit depth : 16 bits
Compression mode : Lossy
Delay relative to video : 83ms
Stream size : 567 MiB (20%)
Title : 1080p.BluRay.x264 . NVEE - [1] English.ac3#trackID=1:lang=[email protected]
/* */
Language : English
Encoded date : UTC 2013-11-11 22:37:50
Tagged date : UTC 2013-11-11 22:39:32
Synopsis
As a hovering spacecraft departs an Earth-like world, a humanoid alien drinks a dark, bubbling liquid, then starts to disintegrate. The alien's remains cascade into a waterfall. His DNA triggers a biogenetic reaction.
Enjoy !

Related Torrents
Torrent Name   AGE FILES SIZE

 Date: 12/29/15 00:03   in : Video  HD Movies 

1557 days 1

 Date: 12/28/15 23:35   in : Video  HD Movies 

1557 days 13 2.3 GB

 Date: 12/28/15 22:51   in : Video  HD Movies 

1557 days 1

 Date: 12/28/15 22:30   in : Video  HD Movies 

1557 days 1 3.9 GB

 Date: 12/28/15 22:08   in : Video  HD Movies 

1557 days 1

 Date: 12/28/15 21:01   in : Video  HD Movies 

1558 days 1

 Date: 12/28/15 20:08   in : Video  HD Movies 

1558 days 1

 Date: 12/28/15 19:59   in : Video  HD Movies 

1558 days 1

 Date: 12/28/15 19:47   in : Video  HD Movies 

1558 days 1 1.2 GB

 Date: 12/28/15 19:31   in : Video  HD Movies 

1558 days 6 8.8 GB