Direct Download Room - The Mystery (2015) HDRip 200MiB HEVC HinDi Dubbed CrystalTorrents (CT) torrent

download torrent
Size: 201.6 MB
Downloaded: 128
Hits: 311
[font=Courier]Room - The Mystery (2015)..HDRip..200MiB..HEVC..HinDi Dubbed..CrystalTorrents..(CT)[/font]


[General] Unique ID : 201466993067682546488831984780936178202 (0x979121A8605E3A9D8272AAA1D81B6A1A)
Complete name : Room - The Mystery (2015)..HDRip..200MiB..HEVC..HinDi Dubbed..CrystalTorrents..(CT).mkv
Format : Matroska
Format version : Version 4 / Version 2
File size : 202 MiB
Duration : 1h 30mn
Overall bit rate : 311 Kbps
Movie name : Room - The Mystery (2015)..HDRip..200MiB..HinDi Dubbed..CrystalTorrents..(CT)
Encoded date : UTC 2015-06-24 12:21:28
Writing application : mkvmerge v7.9.0 ('Birds') 64bit
Writing library : libebml v1.3.1 + libmatroska v1.4.2
DURATION : 01:30:36.576000000
NUMBER_OF_FRAMES : 226524
NUMBER_OF_BYTES : 43492608
_STATISTICS_WRITING_APP : mkvmerge v7.9.0 ('Birds') 64bit
_STATISTICS_WRITING_DATE_UTC : 2015-06-24 12:21:28
_STATISTICS_TAGS : BPS DURATION NUMBER_OF_FRAMES NUMBER_OF_BYTES
[Video] ID : 1
Format : HEVC
Format/Info : High Efficiency Video Coding
Format profile : [email protected]
Codec ID : V_MPEGH/ISO/HEVC
Duration : 1h 30mn
Bit rate : 241 Kbps
Width : 640 pixels
Height : 288 pixels
Display aspect ratio : 2.222
Frame rate mode : Constant
Frame rate : 25.000 fps
Color space : YUV
Chroma subsampling : 4:2:0
Bit depth : 8 bits
Bits/(Pixel*Frame) : 0.052
Stream size : 156 MiB (77%)
Title : CrystalTorrents..(CT)
Language : Telugu
Default : Yes
Forced : No
DURATION : 01:30:36.280000000
NUMBER_OF_FRAMES : 135907
NUMBER_OF_BYTES : 166659920
_STATISTICS_WRITING_APP : mkvmerge v7.9.0 ('Birds') 64bit
_STATISTICS_WRITING_DATE_UTC : 2015-06-24 12:21:28
_STATISTICS_TAGS : BPS DURATION NUMBER_OF_FRAMES NUMBER_OF_BYTES
[Audio] ID : 2
Format : MPEG Audio
Format version : Version 2
Format profile : Layer 3
Mode : Joint stereo
Mode extension : MS Stereo
Codec ID : A_MPEG/L3
Codec ID/Hint : MP3
Duration : 1h 30mn
Bit rate mode : Constant
Bit rate : 64.0 Kbps
Channel(s) : 2 channels
Sampling rate : 24.0 KHz
Compression mode : Lossy
Delay relative to video : -80ms
Stream size : 41.5 MiB (21%)
Title : CrystalTorrents..(CT)
Writing library : LAME3.99r
Encoding settings : -m j -V 4 -q 3 -lowpass 11 -b 64
Language : Hindi
Default : Yes
Forced : No
Related Torrents
Torrent Name   AGE FILES SIZE

 Date: 07/20/16 04:50   in : Video  Dubbed Movies 

755 days 1

 Date: 07/20/16 04:01   in : Video  Dubbed Movies 

755 days 1 715.4 MB

 Date: 07/20/16 03:02   in : Video  Dubbed Movies 

755 days 1 1.2 GB

 Date: 07/20/16 00:14   in : Video  Dubbed Movies 

755 days 1

 Date: 07/20/16 00:05   in : Video  Dubbed Movies 

755 days 1 431.4 MB

 Date: 07/19/16 23:47   in : Video  Dubbed Movies 

755 days 1 1.2 GB

 Date: 07/19/16 20:01   in : Video  Dubbed Movies 

756 days 4 2.6 GB

 Date: 07/19/16 20:00   in : Video  Dubbed Movies 

756 days 1

 Date: 07/19/16 20:00   in : Video  Dubbed Movies 

756 days 3 700.4 MB

 Date: 07/19/16 19:58   in : Video  Dubbed Movies 

756 days 5 701.9 MB