Direct Download Rooster Teeth - Theater Mode - Season 1 (720p x264) [Re-Up] torrent

download torrent
Size: 12.7 GB
Downloaded: 5855
Hits: 17608

720p rip from the Rooster Teeth website. Uncompressed and not converted.
Episodes 1-8 of Theater Mode. In a better quality than I previously uploaded.
Theater Mode
Achievement Hunter is determined to sit through some of the worst movies ever made, and they want you to suffer with them.
Episode #1 - Thankskilling:
Everyone knows turkey can make you sleepy, but this one will make you straight up sick. AH is here to get food poisoning right along with you. Join us in watching Thankskilling, a cinematic masterpiece about a murderous turkey. Enjoy!
Episode #2 - Slink:
Purses are great for hiding things, but you have no idea just how many horrors can lurk inside. Join AH in watching Slink, a thought-provoking, genre-defining work of staggering genius.
Episode #3 - Crazy Bitches:
This plot is crazy. This acting is crazy. These bitches are crazy, too! Join AH as they observe, understand and embrace the crazy in these bad b's and in themselves.
Episode #4 - Apocalypse Kiss:
This film has it all: butts, childbirth, fucked up Yoda, a Sears model, and more. Join AH in watching Apocalypse Kiss. We promise it won’t make you question your life decisions.
Episode #5 - Thankskilling 3:

Thanksgiving-day turkey is good and all, but the creative dishes made from leftovers are even better. AH is back with ThanksKilling 3, the turkey tetrazzini of films. And unlike your lame Thanksgiving, this one has puppets and a rapping grandma.
Episode #6 - Zombie Isle:
If you could have one luxury item on a desert island, what would it be? Let’s hope it’s a machete, because otherwise you’re fucked. Join AH in watching Zombie Isle to find out just how fucked you’d be.
Episode #7 - Chill: The Killing Games:
A game more dangerous than Dungeons and Dragons? The school is locked down and the killer is looking for you. Can you Chill? Join AH in watching Chill: The Killing Games and find out who can survive this haunted game.
Episode #8 - Atrocity:
High schoolers are assholes. Be glad you weren’t popular and strap-in with the AH crew to watch Atrocity, a found footage movie packed full of Shyamalan twists!
Please seed!
If you have any RT requests, let me know.
General Complete name : I:\tort\Theater Mode - Season 1 - 720p\S01E01 720.mp4 Format : MPEG-4 Format profile : Base Media Codec ID : isom (isom/iso2/avc1/mp41) File size : 1.13 GiB Duration : 1h 4mn Overall bit rate mode : Variable Overall bit rate : 2 512 Kbps Writing application : Lavf55.49.100 Video ID : 1 Format : AVC Format/Info : Advanced Video Codec Format profile : [email protected] Format settings, CABAC : Yes Format settings, ReFrames : 4 frames Codec ID : avc1 Codec ID/Info : Advanced Video Coding Duration : 1h 4mn Bit rate : 2 400 Kbps Width : 1 280 pixels Height : 720 pixels Display aspect ratio : 16:9 Frame rate mode : Constant Frame rate : 29.970 (30000/1001) fps Color space : YUV Chroma subsampling : 4:2:0 Bit depth : 8 bits Scan type : Progressive Bits/(Pixel*Frame) : 0.087 Stream size : 1.07 GiB (95%) Writing library : x264 core 148 Encoding settings : cabac=1 / ref=3 / deblock=1:0:0 / analyse=0x1:0x111 / me=hex / subme=7 / psy=1 / psy_rd=1.00:0.00 / mixed_ref=1 / me_range=16 / chroma_me=1 / trellis=1 / 8x8dct=0 / cqm=0 / deadzone=21,11 / fast_pskip=1 / chroma_qp_offset=-2 / threads=22 / lookahead_threads=3 / sliced_threads=0 / nr=0 / decimate=1 / interlaced=0 / bluray_compat=0 / constrained_intra=0 / bframes=3 / b_pyramid=2 / b_adapt=1 / b_bias=0 / direct=1 / weightb=1 / open_gop=0 / weightp=2 / keyint=90 / keyint_min=9 / scenecut=0 / intra_refresh=0 / rc_lookahead=40 / rc=abr / mbtree=1 / bitrate=2400 / ratetol=1.0 / qcomp=0.60 / qpmin=0 / qpmax=69 / qpstep=4 / ip_ratio=1.40 / aq=1:1.00 Color range : Limited Color primaries : BT.709 Transfer characteristics : BT.709 Matrix coefficients : BT.709 Audio ID : 2 Format : AAC Format/Info : Advanced Audio Codec Format profile : LC Codec ID : 40 Duration : 1h 4mn Bit rate mode : Variable Bit rate : 126 Kbps Maximum bit rate : 128 Kbps Channel(s) : 2 channels Channel positions : Front: L R Sampling rate : 44.1 KHz Frame rate : 43.066 fps (1024 spf) Compression mode : Lossy Stream size : 57.8 MiB (5%) Default : Yes Alternate group : 1
Related Torrents
Torrent Name   AGE FILES SIZE

 Date: 07/20/16 07:30   in : Video  Series & TV 

1034 days 20 4.2 GB

 Date: 07/20/16 07:27   in : Video  Series & TV 

1034 days 1 308 MB

 Date: 07/20/16 07:26   in : Video  Series & TV 

1034 days 1

 Date: 07/20/16 07:24   in : Video  Series & TV 

1034 days 1

 Date: 07/20/16 07:19   in : Video  Series & TV 

1034 days 4 2.4 GB

 Date: 07/20/16 07:19   in : Video  Series & TV 

1034 days 4 307.9 MB

 Date: 07/20/16 07:19   in : Video  Series & TV 

1034 days 4 840.5 MB

 Date: 07/20/16 07:17   in : Video  Series & TV 

1034 days 2 993.6 MB

 Date: 07/20/16 07:14   in : Video  Series & TV 

1034 days 4 478.6 MB

 Date: 07/20/16 07:13   in : Video  Series & TV 

1034 days 4 520.7 MB