Direct Download Run All Night (2015) CAMRip torrent

download torrent
Size: 750.3 MB
Downloaded: 237
Hits: 494
Run All Night (2015) CAMRip
Audio language - RUSSIAN!!!
Storyline:
Professional Brooklyn hitman Jimmy Conlon is more commonly known as THE GRAVEDIGGER. Jimmy was a mob hit-man, who was best friends with his boss Sean Maguire. But when Jimmy's son, Michael, is marked for death by the mob, Jimmy must go up against Sean to protect Michael at all costs. Together, he and Michael must avoid corrupt cops, contract killers and the mob to survive the night.
Review by pat-46946:
I'm just your average movie goer who sees one newly released film a week. It is a lunch outing with my best friend. We have been doing this for a couple of years. This movie, RUN ALL NIGHT kept me on the edge of my seat from start to finish. The script was average, the editing very good, the camera work great, the music terrific, and the acting was phenomenal! It is the only film in two years I want to see again. Go,you won't be disappointed. There is a great car chase that can hold its own with the best. It's a gangster movie, so expect lots of shoot-em-up scenes. Gory as they were, they were consistent with all the scenes in the film, so after a a short time they became inconsequential and I focused on the amazing acting.
MI:
General
Format : AVI
Format/Info : Audio Video Interleave
File size : 750 MiB
Duration : 1h 48mn
Overall bit rate : 967 Kbps
Movie name : Rustorrents.Org & Uniongang.Net
Writing library : VirtualDub build 35491/release
Video
ID : 0
Format : MPEG-4 Visual
Format profile : Advanced [email protected]
Format settings, BVOP : 2
Format settings, QPel : No
Format settings, GMC : No warppoints
Format settings, Matrix : Default (H.263)
Muxing mode : Packed bitstream
Codec ID : XVID
Codec ID/Hint : XviD
Duration : 1h 48mn
Bit rate : 827 Kbps
Width : 656 pixels
Height : 288 pixels
Display aspect ratio : 2.25:1
Frame rate : 29.970 fps
Color space : YUV
Chroma subsampling : 4:2:0
Bit depth : 8 bits
Scan type : Progressive
Compression mode : Lossy
Bits/(Pixel*Frame) : 0.146
Stream size : 642 MiB (86%)
Writing library : XviD 73
Audio
ID : 1
Format : MPEG Audio
Format version : Version 1
Format profile : Layer 3
Mode : Joint stereo
Mode extension : MS Stereo
Codec ID : 55
Codec ID/Hint : MP3
Duration : 1h 48mn
Bit rate mode : Constant
Bit rate : 128 Kbps
Channel(s) : 2 channels
Sampling rate : 48.0 KHz
Compression mode : Lossy
Stream size : 99.3 MiB (13%)
Alignment : Split accross interleaves
Interleave, duration : 33 ms (1.00 video frame)
Interleave, preload duration : 500 ms
Sample:
http://rusfolder.com/43472857
Screens:
http://gallerynova.se/site/v/298587
Related Torrents
Torrent Name   AGE FILES SIZE

 Date: 07/20/16 04:50   in : Video  Dubbed Movies 

727 days 1

 Date: 07/20/16 04:01   in : Video  Dubbed Movies 

727 days 1 715.4 MB

 Date: 07/20/16 03:02   in : Video  Dubbed Movies 

727 days 1 1.2 GB

 Date: 07/20/16 00:14   in : Video  Dubbed Movies 

727 days 1

 Date: 07/20/16 00:05   in : Video  Dubbed Movies 

727 days 1 431.4 MB

 Date: 07/19/16 23:47   in : Video  Dubbed Movies 

727 days 1 1.2 GB

 Date: 07/19/16 20:01   in : Video  Dubbed Movies 

727 days 4 2.6 GB

 Date: 07/19/16 20:00   in : Video  Dubbed Movies 

727 days 1

 Date: 07/19/16 20:00   in : Video  Dubbed Movies 

727 days 3 700.4 MB

 Date: 07/19/16 19:58   in : Video  Dubbed Movies 

727 days 5 701.9 MB