Direct Download Rush Hour 2016 s01e09 Prisoner of Love 1080i HDTV x264-KB mkv torrent

download torrent
Size: 1.9 GB
Downloaded: 125
Hits: 293
Format : Matroska
Format version : Version 4 / Version 2
File size : 1.93 GiB
Duration : 36mn 55s
Overall bit rate : 7 471 Kbps
Encoded date : UTC 2016-07-16 12:43:47
Video
ID : 1
Format : AVC
Format/Info : Advanced Video Codec
Format profile : [email protected]
Format settings, CABAC : Yes
Format settings, ReFrames : 4 frames
Codec ID : V_MPEG4/ISO/AVC
Duration : 36mn 55s
Bit rate : 7 085 Kbps
Width : 1 920 pixels
Height : 1 080 pixels
Display aspect ratio : 16:9
Frame rate mode : Constant
Frame rate : 25.000 fps
Color space : YUV
Chroma subsampling : 4:2:0
Bit depth : 8 bits
Scan type : MBAFF
Scan type, store method : Interleaved fields
Scan order : Top Field First
Bits/(Pixel*Frame) : 0.137
Stream size : 1.83 GiB (95%)
Default : Yes
Forced : No
Audio
ID : 2
Format : AC-3
Format/Info : Audio Coding 3
Mode extension : CM (complete main)
Format settings, Endianness : Big
Codec ID : A_AC3
Duration : 36mn 55s
Bit rate mode : Constant
Bit rate : 384 Kbps
Channel(s) : 2 channels
Channel positions : Front: L R
Sampling rate : 48.0 KHz
Frame rate : 31.250 fps (1536 spf)
Compression mode : Lossy
Stream size : 101 MiB (5%)
Title : English AC3 2.0 Audio
Language : English
Default : Yes
Forced : No
Related Torrents
Torrent Name   AGE FILES SIZE

 Date: 07/20/16 07:30   in : Video  Series & TV 

1159 days 20 4.2 GB

 Date: 07/20/16 07:27   in : Video  Series & TV 

1159 days 1 308 MB

 Date: 07/20/16 07:26   in : Video  Series & TV 

1159 days 1

 Date: 07/20/16 07:24   in : Video  Series & TV 

1159 days 1

 Date: 07/20/16 07:19   in : Video  Series & TV 

1159 days 4 2.4 GB

 Date: 07/20/16 07:19   in : Video  Series & TV 

1159 days 4 307.9 MB

 Date: 07/20/16 07:19   in : Video  Series & TV 

1159 days 4 840.5 MB

 Date: 07/20/16 07:17   in : Video  Series & TV 

1159 days 2 993.6 MB

 Date: 07/20/16 07:14   in : Video  Series & TV 

1159 days 4 478.6 MB

 Date: 07/20/16 07:13   in : Video  Series & TV 

1159 days 4 520.7 MB