Direct Download Scooby-Doo! And the Legend of the Vampire HINDI Full Movie [Full HD 1080p] (2003) Fast_Upload torrent

download torrent
Size: 819.4 MB
Downloaded: 141
Hits: 250

Scooby-Doo! And the Legend of the Vampire HINDI Full Movie 2003
General
Complete name : Scooby-Doo! And the Legend of the Vampire HINDI Full Movie [Full HD 1080p] (2003) Fast_Upload.mp4
Format : MPEG-4
Format profile : Base Media
Codec ID : isom
File size : 812 MiB
Duration : 1h 9mn
Overall bit rate : 1 639 Kbps
Writing application : Lavf56.25.101
Video
ID : 1
Format : AVC
Format/Info : Advanced Video Codec
Format profile : [email protected]
Format settings, CABAC : Yes
Format settings, ReFrames : 4 frames
Codec ID : avc1
Codec ID/Info : Advanced Video Coding
Duration : 1h 9mn
Bit rate : 1 474 Kbps
Width : 1 920 pixels
Height : 1 080 pixels
Display aspect ratio : 16:9
Frame rate mode : Constant
Frame rate : 24.000 fps
Color space : YUV
Chroma subsampling : 4:2:0
Bit depth : 8 bits
Scan type : Progressive
Bits/(Pixel*Frame) : 0.030
Stream size : 730 MiB (90%)
Writing library : x264 core 142 r2479 dd79a61
Encoding settings : cabac=1 / ref=4 / deblock=1:1:1 / analyse=0x3:0x113 / me=hex / subme=6 / psy=1 / psy_rd=0.40:0.00 / mixed_ref=1 / me_range=16 / chroma_me=1 / trellis=1 / 8x8dct=1 / cqm=0 / deadzone=21,11 / fast_pskip=1 / chroma_qp_offset=-2 / threads=6 / lookahead_threads=1 / sliced_threads=0 / nr=0 / decimate=1 / interlaced=0 / bluray_compat=0 / constrained_intra=0 / bframes=5 / b_pyramid=2 / b_adapt=1 / b_bias=0 / direct=1 / weightb=1 / open_gop=0 / weightp=1 / keyint=240 / keyint_min=24 / scenecut=40 / intra_refresh=0 / rc_lookahead=30 / rc=crf / mbtree=1 / crf=27.0 / qcomp=0.60 / qpmin=0 / qpmax=69 / qpstep=4 / vbv_maxrate=25000 / vbv_bufsize=31250 / crf_max=0.0 / nal_hrd=none / filler=0 / ip_ratio=1.40 / aq=1:0.60
Color range : Limited
Color primaries : BT.709
Transfer characteristics : BT.709
Matrix coefficients : BT.709
Audio
ID : 2
Format : AAC
Format/Info : Advanced Audio Codec
Format profile : LC
Codec ID : 40
Duration : 1h 9mn
Bit rate mode : Constant
Bit rate : 160 Kbps
Channel(s) : 2 channels
Channel positions : Front: L R
Sampling rate : 44.1 KHz
Compression mode : Lossy
Stream size : 79.3 MiB (10%)
Language : English
SCREENSHOTS
Related Torrents
Torrent Name   AGE FILES SIZE

 Date: 07/20/16 04:50   in : Video  Dubbed Movies 

849 days 1

 Date: 07/20/16 04:01   in : Video  Dubbed Movies 

849 days 1 715.4 MB

 Date: 07/20/16 03:02   in : Video  Dubbed Movies 

849 days 1 1.2 GB

 Date: 07/20/16 00:14   in : Video  Dubbed Movies 

849 days 1

 Date: 07/20/16 00:05   in : Video  Dubbed Movies 

849 days 1 431.4 MB

 Date: 07/19/16 23:47   in : Video  Dubbed Movies 

849 days 1 1.2 GB

 Date: 07/19/16 20:01   in : Video  Dubbed Movies 

849 days 4 2.6 GB

 Date: 07/19/16 20:00   in : Video  Dubbed Movies 

849 days 1

 Date: 07/19/16 20:00   in : Video  Dubbed Movies 

849 days 3 700.4 MB

 Date: 07/19/16 19:58   in : Video  Dubbed Movies 

849 days 5 701.9 MB