Direct Download Slow.West.2015.DVDRip.x264.AC3.RoSubbed-playSD torrent

download
Size: 833 MB
Downloaded: 0
Hits: 1256
https://www.torrenting.com
Sign up is OPEN - for time being. Come and have fun.
General
Unique ID : 245493379635980786227489724415092501432 (0xB8B04E1AF76B8E918AF3BFB44858ABB8)
Complete name : Slow.West.2015.DVDRip.x264.AC3.RoSubbed-playSD.mkv
Format : Matroska
Format version : Version 4 / Version 2
File size : 822 MiB
Duration : 1h 24mn
Overall bit rate : 1 368 Kbps
Encoded date : UTC 2015-07-12 08:58:35
Writing application : mkvmerge v7.6.0 ('Garden of Dreams') 64bit built on Feb 8 2015 13:04:34
Writing library : libebml v1.3.1 + libmatroska v1.4.2
_STATISTICS_WRITING_APP : mkvmerge v7.6.0 ('Garden of Dreams') 64bit built on Feb 8 2015 13:04:34
_STATISTICS_WRITING_DATE_UTC : 2015-07-12 08:58:35
_STATISTICS_TAGS : BPS DURATION NUMBER_OF_FRAMES NUMBER_OF_BYTES
DURATION : 01:24:00.896000000
NUMBER_OF_FRAMES : 157528
NUMBER_OF_BYTES : 241963008
Video
ID : 1
Format : AVC
Format/Info : Advanced Video Codec
Format profile : [email protected]
/* */
Format settings, CABAC : Yes
Format settings, ReFrames : 3 frames
Codec ID : V_MPEG4/ISO/AVC
Duration : 1h 24mn
Bit rate : 957 Kbps
Width : 656 pixels
Height : 400 pixels
Display aspect ratio : 16:10
Frame rate mode : Constant
Frame rate : 23.976 fps
Color space : YUV
Chroma subsampling : 4:2:0
Bit depth : 8 bits
Scan type : Progressive
Bits/(Pixel*Frame) : 0.152
Stream size : 575 MiB (70%)
Writing library : x264 core 125 r2200 999b753
Encoding settings : cabac=1 / ref=3 / deblock=1:-2:-2 / analyse=0x3:0x113 / me=hex / subme=7 / psy=1 / psy_rd=1.00:0.15 / mixed_ref=1 / me_range=16 / chroma_me=1 / trellis=1 / 8x8dct=1 / cqm=0 / deadzone=21,11 / fast_pskip=1 / chroma_qp_offset=-3 / threads=12 / lookahead_threads=2 / sliced_threads=0 / nr=0 / decimate=1 / interlaced=0 / bluray_compat=0 / constrained_intra=0 / bframes=3 / b_pyramid=1 / b_adapt=1 / b_bias=0 / direct=1 / weightb=1 / open_gop=0 / weightp=2 / keyint=240 / keyint_min=23 / scenecut=40 / intra_refresh=0 / rc_lookahead=40 / rc=crf / mbtree=1 / crf=19.0 / qcomp=0.60 / qpmin=0 / qpmax=69 / qpstep=4 / ip_ratio=1.40 / aq=1:1.00
Default : Yes
Forced : No
Audio
ID : 2
Format : AC-3
Format/Info : Audio Coding 3
Mode extension : CM (complete main)
Format settings, Endianness : Big
Codec ID : A_AC3
Duration : 1h 24mn
Bit rate mode : Constant
Bit rate : 384 Kbps
Channel(s) : 6 channels
Channel positions : Front: L C R, Side: L R, LFE
Sampling rate : 48.0 KHz
Bit depth : 16 bits
Compression mode : Lossy
Stream size : 231 MiB (28%)
Default : Yes
Forced : No
Related Torrents
Torrent Name   AGE FILES SIZE

 Date: 12/28/15 23:56   in : Video  Movies 

1053 days 4 1.4 GB

 Date: 12/28/15 23:45   in : Video  Movies 

1053 days 1

 Date: 12/28/15 23:43   in : Video  Movies 

1053 days 5 1.7 GB

 Date: 12/28/15 23:33   in : Video  Movies 

1053 days 1

 Date: 12/28/15 22:49   in : Video  Movies 

1053 days 1

 Date: 12/28/15 22:46   in : Video  Movies 

1053 days 16 2.8 GB

 Date: 12/28/15 22:44   in : Video  Movies 

1053 days 6 583.6 MB

 Date: 12/28/15 22:26   in : Video  Movies 

1053 days 6 761.6 MB

 Date: 12/28/15 22:08   in : Video  Movies 

1053 days 2 1.4 GB

 Date: 12/28/15 21:32   in : Video  Movies 

1053 days 1