Direct Download Snow.Girl.and.the.Dark.Crystal.2015.BRRip.480p-VYTO [P2PDL] torrent

download
Size: 427.1 MB
Downloaded: 0
Hits: 244
____ ____ ____ ____ .___________. ______
/ / / / | | / __
/ / / / `---| |`| | | |
/ _ _/ | | | | | |
/ | | | | | `--' |
__/ |__| |__| ______/
Presenting Small Encodes with quality for years!
Snow.Girl.and.the.Dark.Crystal.2015.BRRip.480p.x264.AAC-VYTO
Original Title: Zhong Kui Fu Mo: Xue Yao Mo Ling
Genre: Fantasy
http://www.imdb.com/title/tt3585004/
General
Format : MPEG-4
File size : 422 MiB
Duration : 1h 57mn
Overall bit rate : 500 Kbps
Video
Format : AVC
Bit rate : 465 Kbps
Width : 720 pixels
Height : 304 pixels
Display aspect ratio : 2.35:1
Frame rate mode : Constant
Frame rate : 24.000 fps
Bit depth : 8 bits
Stream size : 392 MiB (93%)
Writing library : x264 core 146 r2538 121396c
Audio
Format : AAC
Bit rate : 32.0 Kbps
Channel(s) : 2 channels
Channel positions : Front: L R
Sampling rate : 48.0 KHz
Stream size : 27.0 MiB (6%)
Language : Chinese
Subtitle : Yes
Source : LIMITED.720p.BluRay.x264-ROVERS
Screenshots:
http://ititli.com/wr
http://ititli.com/w1
http://ititli.com/wT
http://ititli.com/wW
http://ititli.com/wg
http://ititli.com/wn
http://ititli.com/ww
http://ititli.com/w2
http://ititli.com/w6
http://ititli.com/w8
http://ititli.com/we
http://ititli.com/wj
Encoder Notes: Looking For Early Access To Anything You Can Provide DVDScr, R5, DVDR, BluRay, Direct
Audio, Music Releases and Seedboxes. If You Got anything to offer please contact us.
Support us by donating BC - 1FgwdzPsd1y25Gea8wP1qni35uGCtmkRCD

Related Torrents
Torrent Name   AGE FILES SIZE

 Date: 12/28/15 23:56   in : Video  Movies 

845 days 4 1.4 GB

 Date: 12/28/15 23:45   in : Video  Movies 

845 days 1

 Date: 12/28/15 23:43   in : Video  Movies 

845 days 5 1.7 GB

 Date: 12/28/15 23:33   in : Video  Movies 

845 days 1

 Date: 12/28/15 22:49   in : Video  Movies 

845 days 1

 Date: 12/28/15 22:46   in : Video  Movies 

845 days 16 2.8 GB

 Date: 12/28/15 22:44   in : Video  Movies 

845 days 6 583.6 MB

 Date: 12/28/15 22:26   in : Video  Movies 

845 days 6 761.6 MB

 Date: 12/28/15 22:08   in : Video  Movies 

845 days 2 1.4 GB

 Date: 12/28/15 21:32   in : Video  Movies 

845 days 1