Direct Download System of a Down - Rock in Rio (2015) [1080p] torrent

download
Size: 4.9 GB
Downloaded: 0
Hits: 74231
Tracklist:
01. IEAIAIO
02. Suite-Pee [partial]
03. Attack
04. Prison Song
05. Know
06. Aerials
07. Soldier Side - Intro
08. BYOB
09. Soil
10. Darts
11. Radio / Video
12. Hypnotize
13. Temper
14. CUBErt
15. Needles
16. Deer Dance
17. Bounce
18. Suggestions
19. Psycho
20. Chop Suey!
21. Lonely Day
22. Question!
23. Lost in Hollywood
24. Vicinity of Obscenity
25. Forest
26. Cigaro
27. Toxicity (with Chino Moreno of Deftones)
28. Sugar
***-***-***---***-***-***---***-***-***---***-***-***---***-***-***---
Media Info:
General
ID : 58 (0x3A)
Complete name : D:VideosSystem of a Down - Rock in Rio 24.09.2015.ts
Format : MPEG-TS
File size : 4.90 GiB
Duration : 1h 31mn
Overall bit rate mode : Variable
Overall bit rate : 7 643 Kbps
Video
ID : 1183 (0x49F)
Menu ID : 542 (0x21E)
Format : AVC
Format/Info : Advanced Video Codec
Format version : Version 2
Format profile : [email protected]
Format settings, CABAC : Yes
Format settings, ReFrames : 4 frames
Format settings, GOP : M=4, N=32
Codec ID : 27
Duration : 1h 31mn
Bit rate : 6 618 Kbps
Maximum bit rate : 12.0 Mbps
Width : 1 920 pixels
Height : 1 080 pixels
Display aspect ratio : 16:9
Frame rate : 29.970 fps
Color space : YUV
Chroma subsampling : 4:2:0
Bit depth : 8 bits
Scan type : Interlaced
Scan order : Top Field First
Bits/(Pixel*Frame) : 0.106
Stream size : 4.24 GiB (87%)
Language : aaa
Color range : Limited
Color primaries : BT.709
Transfer characteristics : BT.709
Matrix coefficients : BT.709
Audio #1
ID : 1181 (0x49D)
Menu ID : 542 (0x21E)
Format : MPEG Audio
Format version : Version 1
Format profile : Layer 2
Codec ID : 4
Duration : 1h 31mn
Bit rate mode : Constant
Bit rate : 256 Kbps
Maximum bit rate : 264 Kbps
Channel(s) : 2 channels
Sampling rate : 48.0 KHz
Compression mode : Lossy
Delay relative to video : -1s 607ms
Stream size : 168 MiB (3%)
Language : English
Audio #2
ID : 1182 (0x49E)
Menu ID : 542 (0x21E)
Format : AC-3
Format/Info : Audio Coding 3
Mode extension : CM (complete main)
Format settings, Endianness : Big
Codec ID : 6
Duration : 1h 31mn
Bit rate mode : Constant
Bit rate : 384 Kbps
Maximum bit rate : 395 Kbps
Channel(s) : 6 channels
Channel positions : Front: L C R, Side: L R, LFE
Sampling rate : 48.0 KHz
Compression mode : Lossy
Delay relative to video : -1s 592ms
Stream size : 252 MiB (5%)
Language : Portuguese

Related Torrents
Torrent Name   AGE FILES SIZE

 Date: 12/28/15 23:18   in : Video  Music videos 

1334 days 5 584.7 MB

 Date: 12/28/15 20:17   in : Video  Music videos 

1334 days 1 1.3 GB

 Date: 12/28/15 17:53   in : Video  Music videos 

1335 days 1 50.7 MB

 Date: 12/28/15 15:58   in : Video  Music videos 

1335 days 15 6.2 GB

 Date: 12/27/15 22:24   in : Video  Music videos 

1335 days 1

 Date: 12/27/15 21:08   in : Video  Music videos 

1335 days 21 1.4 GB

 Date: 12/27/15 20:19   in : Video  Music videos 

1335 days 1 473.8 MB

 Date: 12/27/15 00:21   in : Video  Music videos 

1336 days 1

 Date: 12/26/15 23:25   in : Video  Music videos 

1336 days 1 127.3 MB

 Date: 12/26/15 22:10   in : Video  Music videos 

1336 days 1