Direct Download The Colony (Colonia) {2015} [1080p] BluRay AVC x264 DTS-5.1 ~ PCP7 torrent

download torrent
Size: 3.9 GB
Downloaded: 97
Hits: 252

~Blu-Ray , #1080p, #5.1-DTS Sound
http://www.imdb.com/title/tt4005402/
COMMENT
Encoded directly from BluRay at slower presets for best possible size/PQ with DTS-core 6ch audio.
INFO
Movie Title : Colonia
Year: 2015
Imdb rating : 7.1
Runtime : 1h 50mins
Language : English
Country : USA
All Genres : Drama, History, Romance
Plot : Lena and Daniel, a young couple become entangled in the Chilean military coup of 1973. Daniel is abducted by Pinochet's secret police and Lena tracks him to a sealed off area in the South of the country, called Colonia Dignidad. The Colonia presents itself as a charitable mission run by lay preacher Paul Schäfer but, in fact, is a place nobody ever escaped from. Lena decides to join the cult in order to find Daniel. Based on true events.
Video
Format/Info : Advanced Video Codec
Format profile : [email protected]
Format settings, CABAC : Yes
Format settings, ReFrames : 4 frames
Codec ID : V_MPEG4/ISO/AVC
Duration : 1h 50mn
Bit rate : 3500 Kbps
Width : 1920 pixels
Height : 1080 pixels
Display aspect ratio : 16:9
Frame rate mode : Constant
Frame rate : 23.976 fps
Color space : YUV
Chroma subsampling : 4:2:0
Bit depth : 8 bits
Scan type : Progressive
Bits/(Pixel*Frame) : 0.070
Stream size : 2.63 GiB (68%)
Default : Yes
Forced : Yes
Color range : Limited
Matrix coefficients : BT.709
Audio
Format : DTS
Format/Info : Digital Theater Systems
Mode : 16
Format settings, Endianness : Big
Codec ID : A_DTS
Duration : 1h 50mn
Bit rate mode : Constant
Bit rate : 1509 Kbps
Channel(s) : 6 channels
Channel positions : Front: L C R, Side: L R, LFE
Sampling rate : 48.0 KHz
Bit depth : 24 bits
Compression mode : Lossy
Stream size : 1.16 GiB (30%)
Language : English
Default : Yes
Forced : No
Subtitle #1
ID : 3
Format : PGS
Codec ID : S_HDMV/PGS
Codec ID/Info : Picture based subtitle format used on BDs/HD-DVDs
Title : English
Language : English
Default : No
Forced : No
ScreenShots



Related Torrents
Torrent Name   AGE FILES SIZE

 Date: 07/20/16 05:11   in : Video  Highres Movies 

1409 days 2 704.3 MB

 Date: 07/20/16 04:54   in : Video  Highres Movies 

1409 days 1 1 GB

 Date: 07/20/16 04:45   in : Video  Highres Movies 

1409 days 4 949.5 MB

 Date: 07/20/16 04:39   in : Video  Highres Movies 

1409 days 4 2.6 GB

 Date: 07/20/16 04:24   in : Video  Highres Movies 

1409 days 3 6.5 GB

 Date: 07/20/16 03:48   in : Video  Highres Movies 

1409 days 4 1.7 GB

 Date: 07/20/16 03:31   in : Video  Highres Movies 

1409 days 5 1.1 GB

 Date: 07/20/16 03:21   in : Video  Highres Movies 

1409 days 8 2.5 GB

 Date: 07/20/16 02:17   in : Video  Highres Movies 

1409 days 1

 Date: 07/20/16 02:10   in : Video  Highres Movies 

1409 days 4 1.6 GB