Direct Download The Wave 2015 1080p 10bit BluRay 6CH x265 HEVC-Power torrent

download torrent
Size: 1.5 GB
Downloaded: 217
Hits: 476
Source: The.Wave.2015.1080p.BluRay.x264-PSYCHD Video ID : 1 Format : HEVC Format/Info : High Efficiency Video Coding Format profile : Main [email protected]@Main Codec ID : V_MPEGH/ISO/HEVC Duration : 1h 45mn Bit rate : 1 669 Kbps Width : 1 920 pixels Height : 800 pixels Display aspect ratio : 2.40:1 Frame rate mode : Constant Frame rate : 23.976 (24000/1001) fps Color space : YUV Chroma subsampling : 4:2:0 Bit depth : 10 bits Bits/(Pixel*Frame) : 0.045 Stream size : 1.23 GiB (84%) Writing library : x265 1.9+200-6098ba3e0cf16b11:[Windows][GCC 5.3.0][64 bit] 10bit Encoding settings : wpp / ctu=64 / min-cu-size=8 / max-tu-size=32 / tu-intra-depth=1 / tu-inter-depth=1 / me=1 / subme=2 / merange=57 / no-rect / no-amp / max-merge=2 / temporal-mvp / early-skip / recursion-skip / rdpenalty=0 / no-tskip / no-tskip-fast / strong-intra-smoothing / no-lossless / no-cu-lossless / no-constrained-intra / fast-intra / open-gop / no-temporal-layers / interlace=0 / keyint=250 / min-keyint=23 / scenecut=40 / rc-lookahead=15 / lookahead-slices=5 / bframes=4 / bframe-bias=0 / b-adapt=0 / ref=2 / limit-refs=3 / no-limit-modes / weightp / no-weightb / aq-mode=1 / qg-size=32 / aq-strength=1.00 / cbqpoffs=0 / crqpoffs=0 / rd=2 / psy-rd=2.00 / rdoq-level=0 / psy-rdoq=0.00 / no-rd-refine / signhide / deblock=0:0 / sao / no-sao-non-deblock / b-pyramid / cutree / no-intra-refresh / rc=2 / pass / bitrate=1669 / qcomp=0.60 / qpmin=0 / qpmax=51 / qpstep=4 / cplxblur=20.0 / qblur=0.5 / ipratio=1.40 / pbratio=1.30 Default : Yes Forced : No Audio ID : 2 Format : AAC Format/Info : Advanced Audio Codec Format profile : LC Codec ID : A_AAC Duration : 1h 45mn Bit rate : 321 Kbps Channel(s) : 6 channels Channel positions : Front: L C R, Side: L R, LFE Sampling rate : 48.0 KHz Frame rate : 46.875 fps (1024 spf) Compression mode : Lossy Delay relative to video : 9ms Stream size : 241 MiB (16%) Language : Norwegian Bokmal Default : Yes Forced : No Text ID : 3 Format : UTF-8 Codec ID : S_TEXT/UTF8 Codec ID/Info : UTF-8 Plain Text Duration : 1h 44mn Bit rate : 22 bps Count of elements : 612 Stream size : 17.3 KiB (0%) Language : English Default : No Forced : No
Related Torrents
Torrent Name   AGE FILES SIZE

 Date: 07/20/16 05:39   in : Video 

877 days 6 9.9 GB

 Date: 07/20/16 05:38   in : Video 

877 days 7 4.4 GB

 Date: 07/20/16 05:35   in : Video 

877 days 3 7.6 GB

 Date: 07/20/16 05:34   in : Video 

877 days 6 12 GB

 Date: 07/20/16 05:33   in : Video 

877 days 6 6.6 GB

 Date: 07/20/16 05:30   in : Video 

877 days 2 981 MB

 Date: 07/20/16 05:22   in : Video 

877 days 9 6.6 GB

 Date: 07/20/16 05:01   in : Video 

877 days 8 1.4 GB

 Date: 07/20/16 05:00   in : Video 

877 days 7 1.1 GB

 Date: 07/20/16 04:57   in : Video 

877 days 1 1.5 GB