Direct Download The Interceptor (2015) S01E03 x264 RB58.mp4 torrent

download
Size: 637.2 MB
Downloaded: 0
Hits: 340
The Interceptor (2015) S01E03 x264 mp4
http://www.imdb.com/title/tt3654614/
Trailer:
Please be patient My intial upload speed is limited.
Thank you for your kind comments and feedback on my other torrents, your feedback is welcome.
About the Episode:
Phone taps provide the UNIT team with intelligence on a man known only as The Accountant,
the mastermind behind a scheme to launder money via Hawala, a traditional Middle Eastern money transfer
system based on trust and honour.
Further investigation reveals that Zubin Ray, a broker from a family of honest `Hawaladars' became
entangled in The Accountant's plot, and ended up losing the fraudster's money.
Starring O-T Fagbenle
I hope you enjoy.
Technical:
General
Complete name : H:The Interceptor (2015) S01E03 x264 RB58.mp4
Format : MPEG-4
Format profile : Base Media
Codec ID : isom
File size : 637 MiB
Duration : 58mn 36s
Overall bit rate : 1 520 Kbps
Writing application : Lavf54.63.104
Video
ID : 1
Format : AVC
Format/Info : Advanced Video Codec
Format profile : [email protected]
/* */
Format settings, CABAC : Yes
Format settings, ReFrames : 4 frames
Codec ID : avc1
Codec ID/Info : Advanced Video Coding
Duration : 58mn 36s
Bit rate : 1 400 Kbps
Width : 832 pixels
Height : 468 pixels
Display aspect ratio : 16:9
Frame rate mode : Constant
Frame rate : 25.000 fps
Color space : YUV
Chroma subsampling : 4:2:0
Bit depth : 8 bits
Scan type : Progressive
Bits/(Pixel*Frame) : 0.144
Stream size : 587 MiB (92%)
Writing library : x264 core 123 r2189 35cf912
Encoding settings : cabac=1 / ref=3 / deblock=1:0:0
Audio
ID : 2
Format : AAC
Format/Info : Advanced Audio Codec
Format profile : LC
Codec ID : 40
Duration : 58mn 36s
Bit rate mode : Constant
Bit rate : 112 Kbps
Channel(s) : 2 channels
Channel positions : Front: L R
Sampling rate : 48.0 KHz
Compression mode : Lossy
Stream size : 46.9 MiB (7%)
Related Torrents
Torrent Name   AGE FILES SIZE

 Date: 12/29/15 00:13   in : Video  TV shows 

753 days 12 105.3 MB

 Date: 12/29/15 00:12   in : Video  TV shows 

753 days 12 207.2 MB

 Date: 12/29/15 00:07   in : Video  TV shows 

753 days 4 83.6 MB

 Date: 12/29/15 00:05   in : Video  TV shows 

753 days 1

 Date: 12/29/15 00:04   in : Video  TV shows 

753 days 12 277.3 MB

 Date: 12/29/15 00:00   in : Video  TV shows 

753 days 1

 Date: 12/28/15 23:45   in : Video  TV shows 

753 days 12 164.2 MB

 Date: 12/28/15 23:42   in : Video  TV shows 

753 days 4 264.7 MB

 Date: 12/28/15 23:40   in : Video  TV shows 

753 days 1

 Date: 12/28/15 23:37   in : Video  TV shows 

753 days 12 362.1 MB