Direct Download The.Man.with.the.Iron.Fists.2.2015.BRRip.480p-VYTO [P2PDL] torrent

Downloaded: 0
Hits: 242
____ ____ ____ ____ .___________. ______
/ / / / | | / __
/ / / / `---| |`| | | |
/ _ _/ | | | | | |
/ | | | | | `--' |
__/ |__| |__| ______/
Presenting Small Encodes with quality for years!
The.Man.with.the.Iron.Fists.2.2015.BRRip.480p.x264.AAC-VYTO
Genre: Action
http://www.imdb.com/title/tt3625152/
General
Format : MPEG-4
File size : 351 MiB
Duration : 1h 30mn
Overall bit rate : 542 Kbps
Video
Format : AVC
Bit rate : 508 Kbps
Width : 720 pixels
Height : 400 pixels
Display aspect ratio : 16:9
Frame rate mode : Constant
Frame rate : 23.976 fps
Bit depth : 8 bits
Stream size : 328 MiB (94%)
Writing library : x264 core 146 r2538 121396c
Audio
Format : AAC
Bit rate mode : Variable
Bit rate : 32.0 Kbps
Channel(s) : 2 channels
Channel positions : Front: L R
Sampling rate : 48.0 KHz
Stream size : 20.7 MiB (6%)
Language : English
Subtitle : Yes
Source : UNRATED.720p.BluRay.x264-ROVERS
Screenshots:
http://ititli.com/nN
http://ititli.com/nP
http://ititli.com/nf
http://ititli.com/nu
http://ititli.com/nv
http://ititli.com/nR
http://ititli.com/ny
http://ititli.com/n3
http://ititli.com/nE
http://ititli.com/nQ
http://ititli.com/nS
http://ititli.com/nZ
Encoder Notes: Looking For Early Access To Anything You Can Provide DVDScr, R5, DVDR, BluRay, Direct
Audio, Music Releases and Seedboxes. If You Got anything to offer please contact us.
Support us by donating BC - 1FgwdzPsd1y25Gea8wP1qni35uGCtmkRCD
Related Torrents
Torrent Name   AGE FILES SIZE

 Date: 12/28/15 23:56   in : Video  Movies 

1051 days 4 1.4 GB

 Date: 12/28/15 23:45   in : Video  Movies 

1051 days 1

 Date: 12/28/15 23:43   in : Video  Movies 

1051 days 5 1.7 GB

 Date: 12/28/15 23:33   in : Video  Movies 

1051 days 1

 Date: 12/28/15 22:49   in : Video  Movies 

1051 days 1

 Date: 12/28/15 22:46   in : Video  Movies 

1051 days 16 2.8 GB

 Date: 12/28/15 22:44   in : Video  Movies 

1051 days 6 583.6 MB

 Date: 12/28/15 22:26   in : Video  Movies 

1051 days 6 761.6 MB

 Date: 12/28/15 22:08   in : Video  Movies 

1051 days 2 1.4 GB

 Date: 12/28/15 21:32   in : Video  Movies 

1051 days 1