Direct Download The.Matrix.1999.BRRip.480p.x264.AAC-VYTO [P2PDL] torrent

Downloaded: 0
Hits: 228
____ ____ ____ ____ .___________. ______
/ / / / | | / __
/ / / / `---| |`| | | |
/ _ _/ | | | | | |
/ | | | | | `--' |
__/ |__| |__| ______/
Presenting Small Encodes with quality for years!
The.Matrix.1999.BRRip.480p.x264.AAC-VYTO
Genre: Action, Sci-Fi
http://www.imdb.com/title/tt0133093/
General
Format : MPEG-4
File size : 477 MiB
Duration : 2h 16mn
Overall bit rate : 489 Kbps
Video
Format : AVC
Bit rate : 454 Kbps
Width : 720 pixels
Height : 304 pixels
Display aspect ratio : 2.35:1
Frame rate mode : Constant
Frame rate : 23.976 fps
Bit depth : 8 bits
Stream size : 443 MiB (93%)
Writing library : x264 core 146 r2538 121396c
Audio
Format : AAC
Bit rate mode : Variable
Bit rate : 32.0 Kbps
Channel(s) : 2 channels
Channel positions : Front: L R
Sampling rate : 48.0 KHz
Stream size : 31.2 MiB (7%)
Language : English
Subtitle : Yes
Source : 720p.BluRay.x264-CtrlHD
Screenshots:
http://ititli.com/wt
http://ititli.com/wL
http://ititli.com/wd
http://ititli.com/w0
http://ititli.com/wA
http://ititli.com/wl
http://ititli.com/wm
http://ititli.com/wx
http://ititli.com/w7
http://ititli.com/wC
http://ititli.com/wF
http://ititli.com/wJ
Encoder Notes: Looking For Early Access To Anything You Can Provide DVDScr, R5, DVDR, BluRay, Direct
Audio, Music Releases and Seedboxes. If You Got anything to offer please contact us.
Support us by donating BC - 1FgwdzPsd1y25Gea8wP1qni35uGCtmkRCD
Related Torrents
Torrent Name   AGE FILES SIZE

 Date: 12/28/15 23:56   in : Video  Movies 

845 days 4 1.4 GB

 Date: 12/28/15 23:45   in : Video  Movies 

845 days 1

 Date: 12/28/15 23:43   in : Video  Movies 

845 days 5 1.7 GB

 Date: 12/28/15 23:33   in : Video  Movies 

845 days 1

 Date: 12/28/15 22:49   in : Video  Movies 

845 days 1

 Date: 12/28/15 22:46   in : Video  Movies 

845 days 16 2.8 GB

 Date: 12/28/15 22:44   in : Video  Movies 

845 days 6 583.6 MB

 Date: 12/28/15 22:26   in : Video  Movies 

845 days 6 761.6 MB

 Date: 12/28/15 22:08   in : Video  Movies 

845 days 2 1.4 GB

 Date: 12/28/15 21:32   in : Video  Movies 

845 days 1