Direct Download The Second Best Exotic Marigold Hotel 2015 720p BluRay DTS x264 torrent

download
Size: 3.3 GB
Downloaded: 0
Hits: 298
Complete name:
The Second Best Exotic Marigold Hotel 2015 720p BluRay DTS x264 Worldwide7477.mkv
Format : Matroska
Format version : Version 4 / Version 2
File size : 3.22 GiB
Duration : 2h 2mn
Overall bit rate mode : Variable
Overall bit rate : 3 756 Kbps
Movie name : The Second Best Exotic Marigold Hotel 2015 720p BluRay DTS x264 Worldwide7477
Encoded date : UTC 2015-06-29 11:52:03
Writing application : mkvmerge v7.4.0 ('Circles') 64bit built on Dec 12 2014 12:19:56
Video
ID : 1
Format : AVC
Format/Info : Advanced Video Codec
Format profile : [email protected]
/* */
Format settings, CABAC : Yes
Format settings, ReFrames : 3 frames
Codec ID : V_MPEG4/ISO/AVC
Duration : 2h 2mn
Bit rate mode : Variable
Bit rate : 2 999 Kbps
Maximum bit rate : 14.0 Mbps
Width : 1 280 pixels
Height : 544 pixels
Display aspect ratio : 2.35:1
Frame rate mode : Constant
Frame rate : 23.976 fps
Color space : YUV
Chroma subsampling : 4:2:0
Bit depth : 8 bits
Scan type : Progressive
Bits/(Pixel*Frame) : 0.180
Stream size : 2.51 GiB (78%)
Title : The Second Best Exotic Marigold Hotel 2015 720p BluRay DTS x264 Worldwide7477
Language : English
Default : Yes
Forced : No
Audio
ID : 2
Format : DTS
Format/Info : Digital Theater Systems
Mode : 16
Format settings, Endianness : Big
Codec ID : A_DTS
Duration : 2h 2mn
Bit rate mode : Constant
Bit rate : 755 Kbps
Channel(s) : 6 channels
Channel positions : Front: L C R, Side: L R, LFE
Sampling rate : 48.0 KHz
Bit depth : 24 bits
Compression mode : Lossy
Stream size : 662 MiB (20%)
Title : Worldwide7477 (DTS)
Language : English
Default : Yes
Forced : No
Text #1
ID : 3
Format : UTF-8
Codec ID : S_TEXT/UTF8
Codec ID/Info : UTF-8 Plain Text
Title : English
Language : English
Default : Yes
Forced : No
Text #2
ID : 4
Format : UTF-8
Codec ID : S_TEXT/UTF8
Codec ID/Info : UTF-8 Plain Text
Title : English-SDH
Language : English
Default : No
Forced : No
Text #3
ID : 5
Format : UTF-8
Codec ID : S_TEXT/UTF8
Codec ID/Info : UTF-8 Plain Text
Title : Spanish
Language : Spanish
Default : No
Forced : No
Menu
00:00:00.000 : :Chapter 1
00:05:00.000 : :Chapter 2
00:10:00.000 : :Chapter 3
00:15:00.000 : :Chapter 4
00:20:00.000 : :Chapter 5
00:25:00.000 : :Chapter 6
00:30:00.000 : :Chapter 7
00:35:00.000 : :Chapter 8
00:40:00.000 : :Chapter 9
00:45:00.000 : :Chapter 10
00:50:00.000 : :Chapter 11
00:55:00.000 : :Chapter 12
01:00:00.000 : :Chapter 13
01:05:00.000 : :Chapter 14
01:10:00.000 : :Chapter 15
01:15:00.000 : :Chapter 16
01:20:00.000 : :Chapter 17
01:25:00.000 : :Chapter 18
01:30:00.000 : :Chapter 19
01:35:00.000 : :Chapter 20
01:40:00.000 : :Chapter 21
01:45:00.000 : :Chapter 22
01:50:00.000 : :Chapter 23
01:55:00.000 : :Chapter 24
02:00:00.000 : :Chapter 25

Related Torrents
Torrent Name   AGE FILES SIZE

 Date: 12/29/15 00:03   in : Video  HD Movies 

996 days 1

 Date: 12/28/15 23:35   in : Video  HD Movies 

996 days 13 2.3 GB

 Date: 12/28/15 22:57   in : Video  HD Movies 

996 days 10 2.7 GB

 Date: 12/28/15 22:51   in : Video  HD Movies 

996 days 1

 Date: 12/28/15 22:30   in : Video  HD Movies 

996 days 1 3.9 GB

 Date: 12/28/15 22:08   in : Video  HD Movies 

996 days 1

 Date: 12/28/15 21:01   in : Video  HD Movies 

996 days 1

 Date: 12/28/15 20:08   in : Video  HD Movies 

996 days 1

 Date: 12/28/15 19:59   in : Video  HD Movies 

996 days 1

 Date: 12/28/15 19:47   in : Video  HD Movies 

996 days 1 1.2 GB