Direct Download Trumbo.2015.DVDScr.XVID.AC3.HQ.Hive-CM8 torrent

download
Size: 1.7 GB
Downloaded: 0
Hits: 1069
Trumbo 2015 DVDScr XVID AC3 HQ Hive-CM8
http://www.sparrowpics.com/image/P5Cf
http://www.sparrowpics.com/image/LwB
Info : -
Thank CM8 Not Me!
Thx Hive
CM8 Doing It Right The First Time
Source: DVD-Screener Big THX m8
Notes:
DVDScreener 13
Encode:
quality was nice on this
All digital watermarks are removed
Fixed brightness,contrast and rgb, and added sharpness
got very nice
enjoy
Video: 720x384 @bitrate 1700 2pass
Audio: English AC3 2.0 Stereo
Sample: yes included
ps: i forgot to mention, plz support the producers and go to the cinema and watch them on a big screen too
thx
http://www.imdb.com/title/tt3203606/
General
Complete name: Trumbo.2015.DVDScr.XVID.AC3.HQ.Hive-CM8.avi
Format: AVI
Format/Info: Audio Video Interleave
File size: 1.71 GiB
Duration: 2h 4mn
Overall bit rate: 1 968 Kbps
Writing application: Nandub v1.0rc2
Writing library: Nandub build 1853/release
Video
ID: 0
Format: MPEG-4 Visual
Format profile: Advanced [email protected]
Format settings, BVOP: 2
Format settings, QPel: Yes
Format settings, GMC: No warppoints
Format settings, Matrix: Default (H.263)
Muxing mode: Packed bitstream
Codec ID: XVID
Codec ID/Hint: XviD
Duration: 2h 4mn
Bit rate: 1 700 Kbps
Width: 720 pixels
Height: 384 pixels
Display aspect ratio: 1.85:1
Frame rate: 29.970 fps
Color space: YUV
Chroma subsampling: 4:2:0
Bit depth: 8 bits
Scan type: Progressive
Compression mode: Lossy
Bits/(Pixel*Frame): 0.205
Stream size: 1.47 GiB (86%)
Writing library: XviD 1.2.1 (UTC 2008-12-04)
Audio
ID: 1
Format: AC-3
Format/Info: Audio Coding 3
Mode extension: CM (complete main)
Format settings, Endianness: Big
Codec ID: 2000
Duration: 2h 4mn
Bit rate mode: Constant
Bit rate: 256 Kbps
Channel(s): 2 channels
Channel positions: Front: L R
Sampling rate: 48.0 KHz
Bit depth: 16 bits
Compression mode: Lossy
Stream size: 227 MiB (13%)
Alignment: Split accross interleaves
Interleave, duration: 33 ms (1.00 video frame)
Interleave, preload duration: 500 ms
Screens : -
http://www.sparrowpics.com/image/PNZ5
http://www.sparrowpics.com/image/PSSP
http://www.sparrowpics.com/image/PeQm
http://www.sparrowpics.com/image/PtPr
http://www.sparrowpics.com/image/P8OW
http://www.sparrowpics.com/image/JlT
Related Torrents
Torrent Name   AGE FILES SIZE

 Date: 12/28/15 23:56   in : Video  Movies 

1617 days 4 1.4 GB

 Date: 12/28/15 23:45   in : Video  Movies 

1617 days 1

 Date: 12/28/15 23:33   in : Video  Movies 

1617 days 1

 Date: 12/28/15 22:49   in : Video  Movies 

1617 days 1

 Date: 12/28/15 22:46   in : Video  Movies 

1617 days 16 2.8 GB

 Date: 12/28/15 22:44   in : Video  Movies 

1617 days 6 583.6 MB

 Date: 12/28/15 22:26   in : Video  Movies 

1617 days 6 761.6 MB

 Date: 12/28/15 22:08   in : Video  Movies 

1617 days 2 1.4 GB

 Date: 12/28/15 21:32   in : Video  Movies 

1617 days 1

 Date: 12/28/15 21:15   in : Video  Movies 

1617 days 1