Direct Download Unfriended.2014.BRRip.X264.Ac3.CrEwSaDe torrent

download
Size: 1.3 GB
Downloaded: 0
Hits: 313
https://www.torrenting.com
Sign up is OPEN - for time being. Come and have fun
.......................................................................................................................
[color=lightgreen]Release Brought to you by CrEwSaDe[/color]
[color=green]Poster[/color]
[img]http://i.imgur.com/agU2SGA.jpg[/img]
[color=blue]
******************************************************************************************************
**[/color] [color=green]Unfriended.2014.BRRip.X264.Ac3.CrEwSaDe[/color] [color=blue]**
******************************************************************************************************[/color]
[color=orange]
[IMG]http://i.imgur.com/mSjwXjs.gif[/IMG]
Video Codec.......: V_MPEG4/ISO/AVC
Video Bitrate.....: 1 773 Kbps
Audio Codec.......: A_AC3
Audio Bitrate.....: 384 Kbps
Resolution........: 720 pixels x 408 pixels
Runtime...........: 1h 22mn
Release Date......: 01/08/2015
Theatre Date......: 01/05/2015 (UK)
Language..........: English
Subtitles.........: No
IMDB Rating.......: 5.8/10
IMDb URL..........: http://www.imdb.com/title/tt3713166/
GENRE.............: Horror, Thriller
[/color]
[color=blue]_______________________________________________________________________________[/color]
[IMG]http://i.imgur.com/9Z7M0r7.gif[/IMG]
Format : Matroska
Format version : Version 2
File size : 1.27 GiB
Duration : 1h 22mn
Overall bit rate : 2 201 Kbps
Encoded date : UTC 2015-07-31 15:39:47
Writing application : mkvmerge v7.7.0 ('Six Voices') 32bit built on Feb 28 2015 23:23:00
Writing library : libebml v1.3.1 + libmatroska v1.4.2
DURATION : 01:22:39.008000000
NUMBER_OF_FRAMES : 154969
NUMBER_OF_BYTES : 238032384
_STATISTICS_WRITING_APP : mkvmerge v7.7.0 ('Six Voices') 32bit built on Feb 28 2015 23:23:00
_STATISTICS_WRITING_DATE_UTC : 2015-07-31 15:39:47
_STATISTICS_TAGS : BPS DURATION NUMBER_OF_FRAMES NUMBER_OF_BYTES
[color=blue]________________________________________________________________________________[/color]
[IMG]http://i.imgur.com/tDE5iOF.gif[/IMG]
ID : 1
Format : AVC
Format/Info : Advanced Video Codec
Format profile : [email protected]
/* */
Format settings, CABAC : Yes
Format settings, ReFrames : 4 frames
Codec ID : V_MPEG4/ISO/AVC
Duration : 1h 22mn
Bit rate : 1 773 Kbps
Nominal bit rate : 3 945 Kbps
Width : 720 pixels
Height : 408 pixels
Display aspect ratio : 16:9
Frame rate mode : Constant
Frame rate : 23.976 fps
Color space : YUV
Chroma subsampling : 4:2:0
Bit depth : 8 bits
Scan type : Progressive
Bits/(Pixel*Frame) : 0.252
Stream size : 1.02 GiB (81%)
Writing library : x264 core 146 r2538 121396c
Default : Yes
Forced : No
[color=blue]_________________________________________________________________________________[/color]
[IMG]http://i.imgur.com/UReNJEI.gif[/IMG]
ID : 2
Format : AC-3
Format/Info : Audio Coding 3
Mode extension : CM (complete main)
Format settings, Endianness : Big
Codec ID : A_AC3
Duration : 1h 22mn
Bit rate mode : Constant
Bit rate : 384 Kbps
Channel(s) : 6 channels
Channel positions : Front: L C R, Side: L R, LFE
Sampling rate : 48.0 KHz
Bit depth : 16 bits
Compression mode : Lossy
Stream size : 227 MiB (17%)
Language : English
Default : Yes
Forced : No
[color=blue]_________________________________________________________________________________[/color]
[IMG]http://i.imgur.com/GwKJhbW.gif[/IMG]
[color=green]VIDEO: Unfriended.2014.1080p.BluRay.x264-GECKOS Thanks[/color]
[color=green]AUDIO: Unfriended.2014.1080p.BluRay.x264-GECKOS Thanks[/color]
[color=blue]_________________________________________________________________________________[/color]
[IMG]http://i.imgur.com/kFUXqwj.gif[/IMG]
A group of online chat room friends find themselves haunted by a mysterious, supernatural force using the account of their dead friend
[color=blue]_________________________________________________________________________________[/color]
[IMG]http://i.imgur.com/1Wjvkx5.gif[/IMG]
Heather Sossaman,
Matthew Bohrer,
Courtney Halverson,
[color=blue]_________________________________________________________________________________[/color]
[IMG]http://i.imgur.com/O0UeWPU.gif[/IMG]
[img]http://i.imgur.com/8PyFpld.png[/img]
[img]http://i.imgur.com/8ysfVvP.png[/img]
[img]http://i.imgur.com/K44KjN0.png[/img]
[img]http://i.imgur.com/TdteJT4.png[/img]
[img]http://i.imgur.com/2AGisvz.png[/img]
[color=blue]_________________________________________________________________________________[/color]
[IMG]http://i.imgur.com/yS1r7oo.gif[/IMG]
[color=blue]_________________________________________________________________________________[/color]
[IMG]http://i.imgur.com/9YwlQZv.gif[/IMG]
Yes
[color=blue]_________________________________________________________________________________[/color]
[IMG]http://i.imgur.com/JxDWlgB.gif[/IMG]
Nothing Here Move Along......:-)
[color=blue]_________________________________________________________________________________[/color]
[IMG]http://i.imgur.com/GETzsUr.gif[/IMG]
All our home site staff for getting us such great sources :-) also our Friends
RSC,LEGiON,JTR,SAFC,jamie111,NoHaTE,Dirtyburger,r3b3lw0lf,Para53, CrEwSaDe Members Past and Present, all Other p2p Groups Past and Present, That Made all this Possible and the Present ones that Continue to Work so Hard at What we do
[color=blue]__________________________________________________________________________________[/color]
WE DON'T RELEASE EVERYTHiNG TO OTHERS SiTES IF YOU WANT MORE OF OUR STUFF COME FiND US AT .......
CrEwSaDe are Currently Looking for Unreleased DVD's,Screeners,New Music Releases,R5's,Audio,Cams,
Silvers,syncers, and Any Other Good Sources You May Have To Offer.
Contact us @ [email protected]
/* */
[url=http://imgur.com/yYqF7ar][img]http://i.imgur.com/yYqF7ar.png[/img][/url]
[url=http://imgur.com/AyQURk6][img]http://i.imgur.com/AyQURk6.jpg[/img][/url]
Related Torrents
Torrent Name   AGE FILES SIZE

 Date: 12/28/15 23:56   in : Video  Movies 

999 days 4 1.4 GB

 Date: 12/28/15 23:45   in : Video  Movies 

999 days 1

 Date: 12/28/15 23:43   in : Video  Movies 

999 days 5 1.7 GB

 Date: 12/28/15 23:33   in : Video  Movies 

999 days 1

 Date: 12/28/15 22:49   in : Video  Movies 

999 days 1

 Date: 12/28/15 22:46   in : Video  Movies 

999 days 16 2.8 GB

 Date: 12/28/15 22:44   in : Video  Movies 

999 days 6 583.6 MB

 Date: 12/28/15 22:26   in : Video  Movies 

999 days 6 761.6 MB

 Date: 12/28/15 22:08   in : Video  Movies 

999 days 2 1.4 GB

 Date: 12/28/15 21:32   in : Video  Movies 

999 days 1