Direct Download Violence of Action 2012 720p BluRay H264 AAC-RARBG torrent

download torrent
Size: 1.1 GB
Downloaded: 5970
Hits: 13411

https://rarbg.to
Violence.of.Action.2012.720p.BluRay.H264.AAC-RARBG
Screens :





Mediainfo :
Video
ID : 1
Format : AVC
Format/Info : Advanced Video Codec
Format profile : [email protected]
Format settings, CABAC : Yes
Format settings, ReFrames : 4 frames
Codec ID : avc1
Codec ID/Info : Advanced Video Coding
Duration : 1h 30mn
Bit rate : 1 500 Kbps
Width : 1 280 pixels
Height : 720 pixels
Display aspect ratio : 16:9
Frame rate mode : Constant
Frame rate : 23.976 (23976/1000) fps
Color space : YUV
Chroma subsampling : 4:2:0
Bit depth : 8 bits
Scan type : Progressive
Bits/(Pixel*Frame) : 0.068
Stream size : 971 MiB (87%)
Writing library : x264 core 148 r2638M 7599210
Encoding settings : cabac=1 / ref=4 / deblock=1:-1:-1 / analyse=0x3:0x113 / me=umh / subme=9 / psy=1 / psy_rd=1.00:0.15 / mixed_ref=1 / me_range=24 / chroma_me=1 / trellis=2 / 8x8dct=1 / cqm=0 / deadzone=21,11 / fast_pskip=1 / chroma_qp_offset=-3 / threads=32 / lookahead_threads=4 / sliced_threads=0 / nr=0 / decimate=1 / interlaced=0 / bluray_compat=0 / constrained_intra=0 / bframes=3 / b_pyramid=2 / b_adapt=2 / b_bias=0 / direct=3 / weightb=1 / open_gop=0 / weightp=2 / keyint=250 / keyint_min=25 / scenecut=40 / intra_refresh=0 / rc_lookahead=50 / rc=2pass / mbtree=1 / bitrate=1500 / ratetol=1.0 / qcomp=0.60 / qpmin=0 / qpmax=69 / qpstep=4 / cplxblur=20.0 / qblur=0.5 / vbv_maxrate=31250 / vbv_bufsize=31250 / nal_hrd=none / filler=0 / ip_ratio=1.40 / aq=3:1.00
Encoded date : UTC 2016-07-06 11:27:28
Tagged date : UTC 2016-07-06 11:27:28
Audio
ID : 2
Format : AAC
Format/Info : Advanced Audio Codec
Format profile : LC
Codec ID : 40
Duration : 1h 30mn
Bit rate mode : Constant
Bit rate : 224 Kbps
Channel(s) : 2 channels
Channel(s)_Original : 6 channels
Channel positions : Front: L C R, Side: L R, LFE
Sampling rate : 48.0 KHz
Frame rate : 46.875 fps (1024 spf)
Compression mode : Lossy
Stream size : 145 MiB (13%)
Language : English
Default : Yes
Alternate group : 1
Encoded date : UTC 2016-07-06 11:27:28
Tagged date : UTC 2016-07-06 11:27:28
Related Torrents
Torrent Name   AGE FILES SIZE

 Date: 07/20/16 05:11   in : Video  Highres Movies 

730 days 2 704.3 MB

 Date: 07/20/16 04:54   in : Video  Highres Movies 

730 days 1 1 GB

 Date: 07/20/16 04:45   in : Video  Highres Movies 

730 days 4 949.5 MB

 Date: 07/20/16 04:39   in : Video  Highres Movies 

730 days 4 2.6 GB

 Date: 07/20/16 04:24   in : Video  Highres Movies 

730 days 3 6.5 GB

 Date: 07/20/16 03:48   in : Video  Highres Movies 

730 days 4 1.7 GB

 Date: 07/20/16 03:31   in : Video  Highres Movies 

730 days 5 1.1 GB

 Date: 07/20/16 03:21   in : Video  Highres Movies 

730 days 8 2.5 GB

 Date: 07/20/16 02:17   in : Video  Highres Movies 

731 days 1

 Date: 07/20/16 02:10   in : Video  Highres Movies 

731 days 4 1.6 GB