Direct Download Wet job 1981.avi torrent

download torrent
Size: 817.3 MB
Downloaded: 83
Hits: 140
Good rare Callan film he is forced out of retirement to do one last job, a must for any Equalizer or Callan fan. General
Complete name : Wet job 1981.avi
Format : AVI
Format/Info : Audio Video Interleave
File size : 817 MiB
Duration : 1 h 21 min
Overall bit rate : 1 405 kb/s
Video
ID : 0
Format : AVC
Format/Info : Advanced Video Codec
Format profile : [email protected]
Format settings, CABAC : Yes
Format settings, ReFrames : 1 frame
Codec ID : H264
Duration : 1 h 21 min
Bit rate : 1 203 kb/s
Width : 768 pixels
Height : 576 pixels
Display aspect ratio : 4:3
Frame rate : 25.000 FPS
Color space : YUV
Chroma subsampling : 4:2:0
Bit depth : 8 bits
Scan type : Progressive
Bits/(Pixel*Frame) : 0.109
Stream size : 700 MiB (86%)
Audio
ID : 1
Format : MPEG Audio
Format version : Version 1
Format profile : Layer 3
Codec ID : 55
Codec ID/Hint : MP3
Duration : 1 h 21 min
Bit rate mode : Constant
Bit rate : 192 kb/s
Channel(s) : 2 channels
Sampling rate : 44.1 kHz
Compression mode : Lossy
Stream size : 112 MiB (14%)
Alignment : Split accross interleaves
Interleave, duration : 40 ms (1.00 video frame)
Interleave, preload duration : 155 ms
Related Torrents
Torrent Name   AGE FILES SIZE

 Date: 07/20/16 05:39   in : Video 

1213 days 6 9.9 GB

 Date: 07/20/16 05:38   in : Video 

1213 days 7 4.4 GB

 Date: 07/20/16 05:35   in : Video 

1213 days 3 7.6 GB

 Date: 07/20/16 05:34   in : Video 

1213 days 6 12 GB

 Date: 07/20/16 05:33   in : Video 

1213 days 6 6.6 GB

 Date: 07/20/16 05:30   in : Video 

1213 days 2 981 MB

 Date: 07/20/16 05:22   in : Video 

1213 days 9 6.6 GB

 Date: 07/20/16 05:01   in : Video 

1213 days 8 1.4 GB

 Date: 07/20/16 05:00   in : Video 

1213 days 7 1.1 GB

 Date: 07/20/16 04:57   in : Video 

1213 days 1 1.5 GB